Ссылка на приватное зеркало нашего сайта всего за 1$. Внимание количество ограничено!!!

2 сезон

iTunes

1 сезон

1

2 сезон

2 сезон

iTunes

1 сезон

RePack

30

Новинка

ВАЖНО

ИГРА 18+

pack

RePack

MK11
pack

Забери бонус

RePack

jed

!!Акция!!

Alien_Rage

RePack

fifa19

RePack

Assassins Creed: Odyssey

RePack

NEED FOR SPEED™ PAYBACK

4 сезон

9 сезон

Бесстыжие 9 сезон

Все сериалы

все сериалы на PB.wtf

RePack

FAR CRY 5
  

Семейка Бигфутов / Bigfoot Family (Жереми Дегрусон, Бен Стассен) [2020, Мультфильм, приключения, семейный, WEB-DL 1080p] DUB [iTunes] piratbit.org

Семейка Бигфутов через торрент piratbit.org

Раздают: 12 [ 551 KB/s ] Качают: 1 [ 0.7 KB/s ]
Размер: 3.86 GB | Добавлен: 7 д. назад | Торрент скачан:202 раза
Скачать  

10-11-2020 07:11 Семейка Бигфутов Скачать торрент  

Семейка Бигфутов | Bigfoot Family
Год выпуска: 2020
Страна: Бельгия, Франция
Выпущено: Belga Productions, Illuminata Pictures, nWave Pictures
Жанр: Мультфильм, приключения, семейный
Продолжительность: 01:28:39
Перевод: Дублированное | iTunes
Субтитры: Русские (Full), английские

Режиссер: Жереми Дегрусон, Бен Стассен

rating

В ролях: Килиан Труильяр, Алексис Виктор, Мари Шевало, Фредерик Сутерель, Себастьян Дежу, Пьер Тессье, Ксавьер Фаньон, Клара Куиличини

Описание: Все семьи разные, но эта – самая разношерстная. Папа когда-то превратился в Бигфута, сын унаследовал его суперспособности и умение понимать язык животных, так еще и в доме вместе с ними и мамой живет целый зоопарк – огромный медведь, неутомимая белка и беспокойный енот со множеством очаровательных детенышей. Когда же уникальному заповеднику на Аляске понадобится помощь, вся семейка Бигфутов отправится в большое путешествие и покажет всему миру, на что способна их команда…

Качество: WEB-DL 1080p
Формат: MKV

Видео: MPEG-4 AVC, 1920x1080, 5461 Kbit/s, 24.000 fps
Аудио#1: 48 kHz, AC3, 5.1, 384 Kbps | iTunes | RUS |
Аудио#2: 48 kHz, AC3, 5.1, 384 Kbps | Оригинал | ENG |
скриншот  скриншот  скриншот  скриншот  скриншот  

General
Unique ID : 110945840072770060522582055238768675931 (0x5377643D48F42EE44221AA26E3DE4C5B)
Complete name : D:Video111Bigfoot.Family.2020.WEB-DL.1080p.seleZen.mkv
Format : Matroska
Format version : Version 4
File size : 3.86 GiB
Duration : 1 h 28 min
Overall bit rate : 6 231 kb/s
Movie name : Bigfoot Family 2020 from seleZen
Encoded date : UTC 2020-11-27 06:31:19
Writing application : mkvmerge v40.0.0 ('Old Town Road + Pony') 64-bit
Writing library : libebml v1.3.9 + libmatroska v1.5.2

Video
ID : 1
Format : AVC
Format/Info : Advanced Video Codec
Format profile : High@L4
Format settings : CABAC / 2 Ref Frames
Format settings, CABAC : Yes
Format settings, Reference : 2 frames
Codec ID : V_MPEG4/ISO/AVC
Duration : 1 h 28 min
Bit rate : 5 461 kb/s
Width : 1 920 pixels
Height : 1 080 pixels
Display aspect ratio : 16:9
Frame rate mode : Constant
Frame rate : 24.000 FPS
Color space : YUV
Chroma subsampling : 4:2:0
Bit depth : 8 bits
Scan type : Progressive
Bits/(Pixel*Frame) : 0.110
Stream size : 3.38 GiB (88%)
Writing library : x264 core 155 r2901 7d0ff22
Language : English
Default : Yes
Forced : No
Color range : Limited
Color primaries : BT.709
Transfer characteristics : BT.709
Matrix coefficients : BT.709

Audio #1
ID : 2
Format : AC-3
Format/Info : Audio Coding 3
Commercial name : Dolby Digital
Codec ID : A_AC3
Duration : 1 h 28 min
Bit rate mode : Constant
Bit rate : 384 kb/s
Channel(s) : 6 channels
Channel layout : L R C LFE Ls Rs
Sampling rate : 48.0 kHz
Frame rate : 31.250 FPS (1536 SPF)
Compression mode : Lossy
Stream size : 244 MiB (6%)
Title : iTunes
Language : Russian
Service kind : Complete Main
Default : Yes
Forced : Yes

Audio #2
ID : 3
Format : AC-3
Format/Info : Audio Coding 3
Commercial name : Dolby Digital
Codec ID : A_AC3
Duration : 1 h 28 min
Bit rate mode : Constant
Bit rate : 384 kb/s
Channel(s) : 6 channels
Channel layout : L R C LFE Ls Rs
Sampling rate : 48.0 kHz
Frame rate : 31.250 FPS (1536 SPF)
Compression mode : Lossy
Stream size : 244 MiB (6%)
Title : Original
Language : English
Service kind : Complete Main
Default : No
Forced : No

Text #1
ID : 4
Format : UTF-8
Codec ID : S_TEXT/UTF8
Codec ID/Info : UTF-8 Plain Text
Duration : 1 h 21 min
Bit rate : 101 b/s
Count of elements : 1110
Stream size : 60.1 KiB (0%)
Title : Full
Language : Russian
Default : No
Forced : No

Text #2
ID : 5
Format : UTF-8
Codec ID : S_TEXT/UTF8
Codec ID/Info : UTF-8 Plain Text
Duration : 1 h 20 min
Bit rate : 56 b/s
Count of elements : 951
Stream size : 33.6 KiB (0%)
Title : Full
Language : English
Default : No
Forced : No

piratbit.org



Скачать Семейка Бигфутов через торрент https://i114.fastpic.ru/big/2020/1127/a6/cff44c76c7de4792a59ee59b1ad4b8a6.jpg Скачать фильм Семейка Бигфутов через торрент бесплантно в хорошем качестве Описание: Все семьи разные, но эта – самая разношерстная. Папа когда-то превратился в Бигфута, сын унаследовал его суперспособности и ... 10 10 16
Торрент: Зарегистрирован [2020-11-27 06:45] · скачан: 202 раз
Статус: √ проверено
Размер: 3.86 GB
Как cкачать? Как скачать Семейка Бигфутов через торрент | qTorrent

% Раздел Тема Автор DL S | L
Иностранные мультфильмы [ 1.46 GB ] Семейка Бигфутов / Bigfoot Family [2020 Мультфильм WEB-DLRip] bober100 Скачать
3 | 0
Иностранные мультфильмы [ 1.46 GB ] Семейка Бигфутов / Bigfoot Family [2020 Мультфильм полнометражный WEB-DLRip] - Twi7ter Скачать
49 | 0


Последний раз редактировалось: bober100 (2020-11-27 06:52), всего редактировалось 2 раз(а)

28-11-2019 20:33  

Отключить всю рекламу на сайте

25-11-2020 13:30 Семейка Бигфутов Скачать торрент  

с детьми смотрели с интересом!piratbit.org



    Дорогой пользователь! Огромная просьба, поблагодарите релизера, оцените раздачу и оставьте свои комментарий, если Вы скачали Семейка Бигфутов через торрент бесплатно! Внесите свою лепту в развитие PiratBit!
    Комментировать посты могут только пользователи прошедшие не сложную регистрацию
    Показать сообщения:    

    Семейка Бигфутов через торрент
    Скачать бесплатно Семейка Бигфутов
    Семейка Бигфутов скачать торрент
    Семейка Бигфутов смотреть онлайн
    Cкачать фильм Семейка Бигфутов бесплатно
    Семейка Бигфутов скачать торрент в хорошем качестве
    Семейка Бигфутов смотреть онлайн бесплатно в хорошем качестве


    Вы не можете начинать темы
    Вы не можете отвечать на сообщения
    Вы не можете редактировать свои сообщения
    Вы не можете удалять свои сообщения
    Вы не можете голосовать в опросах
    Вы не можете прикреплять файлы к сообщениям
    Вы можете скачивать файлы