Ссылка на приватное зеркало нашего сайта всего за 1$. Внимание количество ограничено!!!

2 сезон

iTunes

1 сезон

1

2 сезон

2 сезон

iTunes

1 сезон

RePack

30

Ultimate

ВАЖНО

ИГРА 18+

pack

RePack

MK11
pack

Забери бонус

RePack

jed

!!Акция!!

Alien_Rage

RePack

fifa19

RePack

Assassins Creed: Odyssey

RePack

NEED FOR SPEED™ PAYBACK

4 сезон

9 сезон

Бесстыжие 9 сезон

Все сериалы

все сериалы на PB.wtf

RePack

FAR CRY 5
  

Тёмные начала / His Dark Materials / Сезон: 2 / Серии: 1-2 из 8 (Джейми Чайлдс) [2020, фэнтези, драма, приключения, семейный, WEB-DL 1080p] 4xMVO (rus, ukr) [NewStudio, AlexFilm, HDRezka Studio, Jaskier] piratbit.org

Тёмные начала через торрент piratbit.org

Размер: 8.23 GB | Добавлен: 3 д. назад | Торрент скачан:5 раз
Скачать  

10-11-2020 10:15 Тёмные начала Скачать торрент  

Тёмные начала | His Dark Materials
«The Truth Lies Beyond the World We Know»
Производство: Великобритания, США
Год выпуска: 2020
Жанр: фэнтези, драма, приключения, семейный
Продолжительность: ~ 00:54:00 серия
Премьера (мир): 3 ноября 2019
Перевод:
Профессиональный (многоголосый закадровый) | NewStudio
Профессиональный (многоголосый закадровый) | AlexFilm
Профессиональный (многоголосый закадровый) | HDRezka Studio
Профессиональный (многоголосый закадровый) | Jaskier
Субтитры: Русские (Full), английские (SDH)

Режиссёр: Джейми Чайлдс, Отто Батхёрст, Том Хупер

В ролях: Дафни Кин (Dafne Keen), Джеймс МакЭвой (James McAvoy), Рут Уилсон (Ruth Wilson), Кларк Питерс (Clarke Peters), Иэн Гелдер (Ian Gelder), Уилл Кин (Will Keen), Эрион Бакаре (Ariyon Bakare), Энн-Мэри Дафф (Anne-Marie Duff), Кит Коннор (Kit Connor), Амир Уилсон (Amir Wilson), Эндрю Скотт (Andrew Scott)

Описание: Лира Белаква (Дафни Кин) — девочка талантливая, энергичная, с живым пытливым умом и обаятельным деймоном-куницей по имени Пантелеймон. Вот только родители Лиры таинственным образом погибли, когда она была младенцем, и теперь девочка живет на попечении дяди, лорда Азриэла (Джеймс МакЭвой), скупого на эмоции исследователя Севера. Впрочем, он тоже не может проводить много времени с племянницей — его недавнее открытие ставит под угрозу и его жизнь, и безопасность Лиры. А нашел он на далеком Севере следы субстанции, называемой Пылью, которая может стать проводником в другие миры. Пока перепуганная открытием местная Влacть Магистериум всячески лепит из лорда Азриэла врага, пытаясь заткнуть тому рот, непоседливая Лира встречает властную и неуловимо подозрительную Марису Колтер (Рут Уилсон). Та предлагает девочке стать ее помощницей и отправиться с ней в Лондон. Засомневавшаяся было Лира соглашается, когда узнает, что ее единственный на всем белом свете друг Роджер пропал. Тени над Лирой сгущаются, ведь за исчезновением Роджера и других детей стоит тайная организация Жрецы, оказавшаяся чем-то большим, нежели страшилкой для ребят. Теперь Лире нужно бесстрашно пройти кучу испытаний, раскрыть тайный заговор и даже исполнить пророчество, предрекающее ее судьбу.

rating

Качество: WEB-DL 1080p
Формат: MKV

Видео: 1920x960 (2.000), ~ 9090 Kbps, 25.000 fps
Аудио 1: AC3, 48 kHz, 6 ch, 640 kbps - Rus (NewStudio)
Аудио 2: AC3, 48 kHz, 6 ch, 384 kbps - Rus (AlexFilm)
Аудио 3: AC3, 48 kHz, 6 ch, 384 kbps - Rus (HDRezka Studio)
Аудио 4: AC3, 48 kHz, 6 ch, 384 kbps - Rus (Jaskier)
Аудио 5: AC3, 48 kHz, 6 ch, 384 kbps - Ukr
Аудио 6: AC3, 48 kHz, 6 ch, 640 kbps - Eng
скриншот  скриншот  скриншот  скриншот  скриншот  

Общее
Уникальный идентификатор : 195416837427228220790988600424860004961 (0x9303E9F44AD6107A988DBCD8B8ACB261)
Полное имя : C:\Тёмные начала. 2 сезон. 2020. EniaHD (WEB-DL 1080p)\His.Dark.Materials.s02e01. Город сорок.mkv
Формат : Matroska
Версия формата : Version 2
Размер файла : 3,95 Гбайт
Продолжительность : 46 м. 38 с.
Общий поток : 12,1 Мбит/сек
Название фильма : The City of Magpies
Дата кодирования : UTC 2020-11-16 09:56:30
Программа кодирования : mkvmerge v6.9.1 ('Blue Panther') 32bit built on Apr 18 2014 18:15:44
Библиотека кодирования : libebml v1.3.0 + libmatroska v1.4.1

Видео
Идентификатор : 1
Формат : AVC
Формат/Информация : Advanced Video Codec
Профиль формата : High@L4
Настройки формата : CABAC / 4 Ref Frames
Параметр CABAC формата : Да
Параметр RefFrames формата : 4 кадра
Идентификатор кодека : V_MPEG4/ISO/AVC
Продолжительность : 46 м. 38 с.
Вид битрейта : Постоянный
Битрейт : 9068 Кбит/сек
Номинальный битрейт : 10000 Кбит/сек
Ширина : 1920 пикселей
Высота : 960 пикселей
Соотношение сторон : 2,000
Режим частоты кадров : Постоянный
Частота кадров : 25,000 кадров/сек
Цветовое пространство : YUV
Субдискретизация насыщенности : 4:2:0
Битовая глубина : 8 бит
Тип развёртки : Прогрессивная
Бит/(Пиксели*Кадры) : 0.197
Размер потока : 2,95 Гбайт (75%)
Язык : English
Default : Да
Forced : Нет
Цветовой диапазон : Limited
Основные цвета : BT.709
Характеристики трансфера : BT.709
Коэффициенты матрицы : BT.709

Аудио #1
Идентификатор : 2
Формат : AC-3
Формат/Информация : Audio Coding 3
Коммерческое название : Dolby Digital
Идентификатор кодека : A_AC3
Продолжительность : 46 м. 38 с.
Вид битрейта : Постоянный
Битрейт : 640 Кбит/сек
Каналы : 6 каналов
ChannelLayout : L R C LFE Ls Rs
Частота : 48,0 КГц
Частота кадров : 31,250 кадров/сек (1536 SPF)
Битовая глубина : 16 бит
Метод сжатия : С потерями
Размер потока : 214 Мбайт (5%)
Заголовок : NewStudio
Язык : Russian
ServiceKind/String : Complete Main
Default : Да
Forced : Нет

Аудио #2
Идентификатор : 3
Формат : AC-3
Формат/Информация : Audio Coding 3
Коммерческое название : Dolby Digital
Идентификатор кодека : A_AC3
Продолжительность : 46 м. 38 с.
Вид битрейта : Постоянный
Битрейт : 384 Кбит/сек
Каналы : 6 каналов
ChannelLayout : L R C LFE Ls Rs
Частота : 48,0 КГц
Частота кадров : 31,250 кадров/сек (1536 SPF)
Битовая глубина : 16 бит
Метод сжатия : С потерями
Размер потока : 128 Мбайт (3%)
Заголовок : AlexFilm
Язык : Russian
ServiceKind/String : Complete Main
Default : Нет
Forced : Нет

Аудио #3
Идентификатор : 4
Формат : AC-3
Формат/Информация : Audio Coding 3
Коммерческое название : Dolby Digital
Идентификатор кодека : A_AC3
Продолжительность : 46 м. 38 с.
Вид битрейта : Постоянный
Битрейт : 384 Кбит/сек
Каналы : 6 каналов
ChannelLayout : L R C LFE Ls Rs
Частота : 48,0 КГц
Частота кадров : 31,250 кадров/сек (1536 SPF)
Битовая глубина : 16 бит
Метод сжатия : С потерями
Размер потока : 128 Мбайт (3%)
Заголовок : HDRezka Studio
Язык : Russian
ServiceKind/String : Complete Main
Default : Нет
Forced : Нет

Аудио #4
Идентификатор : 5
Формат : AC-3
Формат/Информация : Audio Coding 3
Коммерческое название : Dolby Digital
Идентификатор кодека : A_AC3
Продолжительность : 46 м. 38 с.
Вид битрейта : Постоянный
Битрейт : 384 Кбит/сек
Каналы : 6 каналов
ChannelLayout : L R C LFE Ls Rs
Частота : 48,0 КГц
Частота кадров : 31,250 кадров/сек (1536 SPF)
Битовая глубина : 16 бит
Метод сжатия : С потерями
Размер потока : 128 Мбайт (3%)
Заголовок : Jaskier
Язык : Russian
ServiceKind/String : Complete Main
Default : Нет
Forced : Нет

Аудио #5
Идентификатор : 6
Формат : AC-3
Формат/Информация : Audio Coding 3
Коммерческое название : Dolby Digital
Идентификатор кодека : A_AC3
Продолжительность : 46 м. 38 с.
Вид битрейта : Постоянный
Битрейт : 384 Кбит/сек
Каналы : 6 каналов
ChannelLayout : L R C LFE Ls Rs
Частота : 48,0 КГц
Частота кадров : 31,250 кадров/сек (1536 SPF)
Битовая глубина : 16 бит
Метод сжатия : С потерями
Размер потока : 128 Мбайт (3%)
Язык : Ukrainian
ServiceKind/String : Complete Main
Default : Нет
Forced : Нет

Аудио #6
Идентификатор : 7
Формат : AC-3
Формат/Информация : Audio Coding 3
Коммерческое название : Dolby Digital
Идентификатор кодека : A_AC3
Продолжительность : 46 м. 38 с.
Вид битрейта : Постоянный
Битрейт : 640 Кбит/сек
Каналы : 6 каналов
ChannelLayout : L R C LFE Ls Rs
Частота : 48,0 КГц
Частота кадров : 31,250 кадров/сек (1536 SPF)
Битовая глубина : 16 бит
Метод сжатия : С потерями
Размер потока : 214 Мбайт (5%)
Язык : English
ServiceKind/String : Complete Main
Default : Нет
Forced : Нет

Текст #1
Идентификатор : 8
Формат : UTF-8
Идентификатор кодека : S_TEXT/UTF8
Идентификатор кодека/Информация : UTF-8 Plain Text
Язык : Russian
Default : Нет
Forced : Нет

Текст #2
Идентификатор : 9
Формат : UTF-8
Идентификатор кодека : S_TEXT/UTF8
Идентификатор кодека/Информация : UTF-8 Plain Text
Заголовок : SDH
Язык : English
Default : Нет
Forced : Нет

Когда раздача ведётся путём добавления новых серий, при каждом добавлении создётся новый торрент. Чтобы начать докачку новой серии, пользователям необходимо сделать следующее:
(1) остановить скачивание,
(2) удалить старый торрент у себя из клиента (старые серии удалять не надо),
(3) скачать новый торрент и запустить его у себя в клиенте вместо старого, при этом указать клиенту путь в старую папку, куда и должно происходить скачивание новых серий.
Ваш клиент при этом должен произвести хеширование (проверку) старой папки (если не производит сам - помогите ему сделать это), и будет докачивать только те серии, которых у вас ещё нет. Старые серии при этом не удаляются, а продолжают раздаваться!
Eсли вы уже удалили старые серии, то предотвратить повторную закачку старых серий можно, отжав галочку в соответсвующих местах при запуске нового торрента. По возможности, желательно не удалять старые серии как можно дольше, чтобы релизёр не столько продолжал раздавать старые серии, а смог сконцентрироваться на новых.

piratbit.org



Скачать Тёмные начала через торрент https://i1.imageban.ru/out/2019/11/06/798ec55441a7503da540b229a737cc8d.png Скачать фильм Тёмные начала через торрент бесплантно в хорошем качестве Описание: Лира Белаква (Дафни Кин) — девочка талантливая, энергичная, с живым пытливым умом и обаятельным деймоном-куницей по имени ... 10 10 3
Торрент: Зарегистрирован [2020-11-22 02:02] · скачан: 5 раз
Статус: √ проверено
Размер: 8.23 GB
Как cкачать? Как скачать Тёмные начала через торрент | qTorrent

% Раздел Тема Автор DL S | L
Зарубежные сериалы [ 14.11 GB ] Тёмные начала / His Dark Materials / Сезон: 2 / Серии: 1-2 из 8 [2020 UHD WEB-DL 2160p] 4xMVO [LostFilm AlexFilm Jaskier NewStudio] bober100 Скачать
1 | 0
Зарубежные сериалы [ 1.35 GB ] Тёмные начала / His Dark Materials / Сезон: 2 / Серии: 1-2 из 8 [2020 WEB-DLRip] MVO [LostFilm] bober100 Скачать
6 | 2
T Релизы по Парсеру [Игры, Сериалы и Фильмы и другое...] [ 12.43 GB ] Тёмные начала / His Dark Materials / Сезон: 2 / Серии: 1- 2 из 8 [2020 WEBRip 2160p] DUB [Novamedia / Amedia] Russian Mafia Скачать
1 | 1
Зарубежные сериалы [ 6.89 GB ] Тёмные начала / His Dark Materials / Сезон: 2 / Серии: 1-2 из 8 [2020 WEB-DL 1080p] DUB [Novamedia / Amedia] bober100 Скачать
9 | 4
Зарубежные сериалы [ 1.22 GB ] Тёмные начала / His Dark Materials / Сезон: 2 / Серии: 1-2 из 8 [2020 WEB-DLRip] DUB [Novamedia / Amedia] bober100 Скачать
6 | 1
Зарубежные сериалы [ 1.13 GB ] Тёмные начала / His Dark Materials / Сезон: 2 / Серии: 1-2 из 8 [2020 WEB-DLRip] MVO [Jaskier] bober100 Скачать
1 | 0
Зарубежные сериалы [ 6.84 GB ] Тёмные начала / His Dark Materials / Сезон: 2 / Серии: 1-2 из 8 [2020 WEB-DL 1080p] MVO [Jaskier] bober100 Скачать
6 | 0

28-11-2019 20:33  

Отключить всю рекламу на сайте

    Дорогой пользователь! Огромная просьба, поблагодарите релизера, оцените раздачу и оставьте свои комментарий, если Вы скачали Тёмные начала через торрент бесплатно! Внесите свою лепту в развитие PiratBit!
    Комментировать посты могут только пользователи прошедшие не сложную регистрацию
    Показать сообщения:    

    Тёмные начала через торрент
    Скачать бесплатно Тёмные начала
    Тёмные начала скачать торрент
    Тёмные начала смотреть онлайн
    Cкачать фильм Тёмные начала бесплатно
    Тёмные начала скачать торрент в хорошем качестве
    Тёмные начала смотреть онлайн бесплатно в хорошем качестве


    Вы не можете начинать темы
    Вы не можете отвечать на сообщения
    Вы не можете редактировать свои сообщения
    Вы не можете удалять свои сообщения
    Вы не можете голосовать в опросах
    Вы не можете прикреплять файлы к сообщениям
    Вы можете скачивать файлы