Доктор Стрэндж

Лицензия

Добыча

MVO

Дом дракона

1 сезон

Тор

Лицензия

Мэверик

Лицензия

Там, где раки поют

MVO

Властелин колец

1 сезон

Ultimate

pack

Рекомендуем

30

Repack

ВАЖНО

ВАЖНО

Ghostwire

RePack

jed

RePack

nioh2

RePack

RDR2

RePack

NEED FOR SPEED™ PAYBACK

RePack

скачать торрент

Кинопоиск HD

Острые козырьки 6 сезон

6 сезон

FAR CRY 6

RePack

скачать торрент

Лицензия

скачать торрент

MVO

1

1 сезон

скачать торрент

1 сезон

скачать торрент

Лицензия

  

Экипаж (Александр Митта) [1980, Боевик, триллер, драма, катастрофа, WEB-DL 1080p] (Широкоэкранная версия)

Экипаж через торрент piratbit.org

Размер: 6.7 GB | Добавлен: 1 год 10 мес. назад | Торрент скачан:22 раза
Смотреть онлайн Экипаж | Скачать   

13-11-2020 10:36 Экипаж Скачать торрент  

Экипаж
Год выпуска: 1980
Страна: СССР
Студия: Мосфильм
Жанр: Боевик, триллер, драма, катастрофа
Продолжительность: 02:15:36
Перевод: Не требуется
Субтитры: Русские

Режиссер: Александр Митта

rating

В ролях: Георгий Жжёнов, Анатолий Васильев, Леонид Филатов, Александра Яковлева, Ирина Акулова, Екатерина Васильева, Мария Скворцова, Галина Гладкова, Юрий Горобец, Александр Павлов, Елена Коренева, Геннадий Матвеев, Рома Монин, Иван Рыжов, Комаки Курихара, Александр Потапов, Алексей Якубов, Ирина Савина, Антон Табаков, Иван Агафонов, Ирина Санпитер, Сергей Яковлев, Юрий Гусев, Константин Захаров, Николай Сморчков, Николай Лебедев, Герман Юшко, Павел Ремезов, Александр Пашутин, Анна Варпаховская, Иван Воронов, Лариса Барабанова, Владимир Иванов, Александра Назарова, Владимир Маренков, Вадим Александров, Клара Румянова

Описание: Экипаж самолета, перевозящего грузы и пассажиров, попадает в ситуацию, по сравнению, с которой конец света может показаться детской забавой… В аэропорту, в котором приземлился самолет, землетрясение. Извергается огненная лава, земля уходит из под ног, все вокруг горит и рушится, людей охватывает ужас, возникает паника. После прибытия самолета происходит огромной силы новый толчок. Взлетная полоса повреждена. Но благодаря опыту и мужеству экипажа самолет удается поднять в воздух. Кажется, что пришло спасение, что самое страшное осталось на земле. Однако выясняется, что при взлете самолет получил массу повреждений, и одно из них слишком опасно, чтобы самолет смог благополучно приземлиться.

Качество: WEB-DL 1080p | Широкоэкранная версия
Формат: MKV

Видео: MPEG-4 AVC, 1920x1080, ~ 7000 Kbps, 25.000 fps
Аудио: Русский (AAC, 2 ch, 48.0 KHz, 16 bits, 125 kbps)
скриншот  скриншот  скриншот  скриншот  скриншот  

General
Unique ID : 17732887526705552937821721184598494502 (0xD573ADB4DD23E4114B6D020D76C0D26)
Complete name : Экипаж (1979).mkv
Format : Matroska
Format version : Version 4
File size : 6.70 GiB
Duration : 2 h 15 min
Overall bit rate : 7 073 kb/s
Movie name : Экипаж (1979)
Encoded date : UTC 2020-11-13 07:56:52
Writing application : mkvmerge v43.0.0 ('The Quartermaster') 64-bit
Writing library : libebml v1.3.10 + libmatroska v1.5.2

Video
ID : 1
Format : AVC
Format/Info : Advanced Video Codec
Format profile : High@L4
Format settings : CABAC / 2 Ref Frames
Format settings, CABAC : Yes
Format settings, Reference frames : 2 frames
Codec ID : V_MPEG4/ISO/AVC
Duration : 2 h 15 min
Bit rate mode : Constant
Bit rate : 7 000 kb/s
Width : 1 920 pixels
Height : 1 080 pixels
Display aspect ratio : 16:9
Frame rate mode : Constant
Frame rate : 25.000 FPS
Color space : YUV
Chroma subsampling : 4:2:0
Bit depth : 8 bits
Scan type : Progressive
Bits/(Pixel*Frame) : 0.135
Stream size : 6.58 GiB (98%)
Default : Yes
Forced : No

Audio
ID : 2
Format : AAC LC
Format/Info : Advanced Audio Codec Low Complexity
Codec ID : A_AAC-2
Duration : 2 h 15 min
Bit rate : 125 kb/s
Channel(s) : 2 channels
Channel layout : L R
Sampling rate : 48.0 kHz
Frame rate : 46.875 FPS (1024 SPF)
Compression mode : Lossy
Stream size : 122 MiB (2%)
Language : Russian
Default : Yes
Forced : No

Text
ID : 3
Format : UTF-8
Codec ID : S_TEXT/UTF8
Codec ID/Info : UTF-8 Plain Text
Duration : 2 h 12 min
Bit rate : 84 b/s
Count of elements : 1101
Stream size : 81.8 KiB (0%)
Language : Russian
Default : No
Forced : No

Menu
00:00:00.000 : :Первая серия
01:19:04.800 : :Вторая серия




Скачать Экипаж через торрент http://i114.fastpic.ru/big/2020/1113/05/996bb621c2628e57d1b1e19ec19b7e05.jpg Скачать, смотреть онлайн Экипаж бесплантно в хорошем качестве Описание: Экипаж самолета, перевозящего грузы и пассажиров, попадает в ситуацию, по сравнению, с которой конец света может показаться ... 10 10 5
Торрент: Зарегистрирован [2020-11-13 10:36] · скачан: 22 раз
Статус: √ проверено
Размер: 6.7 GB
Как cкачать? Как скачать Экипаж через торрент | UTorrent

% Раздел Тема Автор DL S | L
Кино СССР [ 1.47 GB ] Экипаж | | DVDRip olegus16 Скачать
1 | 1

28-11-2019 20:33  

Отключить вcю реклaмy на сайте

    Дорогой пользователь! Огромная просьба, поблагодарите релизера, оцените раздачу и оставьте свои комментарий, если Вы скачали Экипаж через торрент бесплатно!!
    Комментировать посты могут только пользователи прошедшие не сложную регистрацию
    Показать сообщения:    


    Экипаж через торрент
    Скачать бесплатно Экипаж
    Экипаж скачать торрент
    Экипаж смотреть онлайн
    Cкачать фильм Экипаж бесплатно
    Экипаж скачать торрент в хорошем качестве
    Экипаж смотреть онлайн бесплатно в хорошем качестве
    Вы не можете начинать темы
    Вы не можете отвечать на сообщения
    Вы не можете редактировать свои сообщения
    Вы не можете удалять свои сообщения
    Вы не можете голосовать в опросах
    Вы не можете прикреплять файлы к сообщениям
    Вы можете скачивать файлы