Ссылка на приватное зеркало нашего сайта всего за 1$. Внимание количество ограничено!!!

2 сезон

iTunes

1 сезон

1

2 сезон

2 сезон

iTunes

1 сезон

RePack

30

Новинка

ВАЖНО

ИГРА 18+

pack

RePack

MK11
pack

Забери бонус

RePack

jed

!!Акция!!

Alien_Rage

RePack

fifa19

RePack

Assassins Creed: Odyssey

RePack

NEED FOR SPEED™ PAYBACK

4 сезон

9 сезон

Бесстыжие 9 сезон

Все сериалы

все сериалы на PB.wtf

RePack

FAR CRY 5
  

AC-DC (ACDC) - Power Up (Box Set) - 2020/ FLAC/ image +.cue/ lossless/ Hard Rock piratbit.org

AC-DC через торрент piratbit.org

Раздают: 1 [ 0 KB/s ] Качают: 1 [ 0 KB/s ]
Размер: 419 MB | Добавлен: 17 д. назад | Торрент скачан:26 раз
Скачать  

14-11-2020 17:48 AC-DC Скачать торрент  


AC-DC (ACDC) - Power Up (Box Set)


Год издания: 2020
Страна: Australia
Жанр: Hard Rock
Продолжительность: 00:41:08
Лейбл издания: Columbia / Sony Music
Страна-выпуска диска: Germany
Номер по каталогу: 19439744472
Формат: FLAC
Битрейт аудио: Lossless
Тип рипа: image +.cue
Наличие сканов в содержимом раздачи: да


01. Realize (3:38)
02. Rejection (4:07)
03. Shot In The Dark (3:06)
04. Through The Mists Of Time (3:33)
05. Kick You When You're Down (3:11)
06. Witch's Spell (3:43)
07. Demon Fire (3:31)
08. Wild Reputation (2:55)
09. No Man's Land (3:40)
10. Systems Down (3:13)
11. Money Shot (3:06)
12. Code Red (3:32)

Код:

Exact Audio Copy V1.5 from 20. February 2020

EAC extraction logfile from 13. November 2020, 17:37

AC/DC / Power Up (Columbia,Sony Music 19439744472)

Used drive  : PIONEER DVD-RW  DVR-221   Adapter: 1  ID: 0

Read mode               : Secure
Utilize accurate stream : Yes
Defeat audio cache      : Yes
Make use of C2 pointers : No

Read offset correction                      : 6
Overread into Lead-In and Lead-Out          : No
Fill up missing offset samples with silence : Yes
Delete leading and trailing silent blocks   : No
Null samples used in CRC calculations       : Yes
Used interface                              : Installed external ASPI interface

Used output format              : User Defined Encoder
Selected bitrate                : 1024 kBit/s
Quality                         : High
Add ID3 tag                     : No
Command line compressor         : C:\Program Files\Exact Audio Copy\FLAC\FLAC.EXE
Additional command line options : -V -8 -T "Date=%year%" -T "Genre=%genre%" -T "COMMENT=" -8 -V %source%

TOC of the extracted CD

     Track |   Start  |  Length  | Start sector | End sector
    ---------------------------------------------------------
        1  |  0:00.00 |  3:37.35 |         0    |    16309
        2  |  3:37.35 |  4:06.35 |     16310    |    34794
        3  |  7:43.70 |  3:05.10 |     34795    |    48679
        4  | 10:49.05 |  3:32.17 |     48680    |    64596
        5  | 14:21.22 |  3:10.25 |     64597    |    78871
        6  | 17:31.47 |  3:42.19 |     78872    |    95540
        7  | 21:13.66 |  3:30.27 |     95541    |   111317
        8  | 24:44.18 |  2:54.30 |    111318    |   124397
        9  | 27:38.48 |  3:39.48 |    124398    |   140870
       10  | 31:18.21 |  3:12.48 |    140871    |   155318
       11  | 34:30.69 |  3:05.24 |    155319    |   169217
       12  | 37:36.18 |  3:31.11 |    169218    |   185053

Range status and errors

Selected range

     Filename D:\Program Files\CD Images\AC-DC - Power Up 2020 (Box Set) (Lossless)\AC,DC - Power Up (Columbia,Sony Music 19439744472).wav

     Peak level 98.8 %
     Extraction speed 4.2 X
     Range quality 100.0 %
     Test CRC 31D49D8D
     Copy CRC 31D49D8D
     Copy OK

No errors occurred

AccurateRip summary

Track  1  not present in database
Track  2  not present in database
Track  3  not present in database
Track  4  not present in database
Track  5  not present in database
Track  6  not present in database
Track  7  not present in database
Track  8  not present in database
Track  9  not present in database
Track 10  not present in database
Track 11  not present in database
Track 12  not present in database

None of the tracks are present in the AccurateRip database

End of status report

Код:

REM GENRE "Hard Rock"
REM DATE 2020
REM DISCID 9F09A30C
REM COMMENT "ExactAudioCopy v1.5"
PERFORMER "AC/DC"
TITLE "Power Up (Columbia,Sony Music 19439744472)"
REM COMPOSER ""
FILE "AC,DC - Power Up (Columbia,Sony Music 19439744472).flac" WAVE
  TRACK 01 AUDIO
    TITLE "Realize"
    PERFORMER "AC/DC"
    REM COMPOSER ""
    FLAGS DCP
    INDEX 01 00:00:00
  TRACK 02 AUDIO
    TITLE "Rejection"
    PERFORMER "AC/DC"
    REM COMPOSER ""
    FLAGS DCP
    INDEX 01 03:37:35
  TRACK 03 AUDIO
    TITLE "Shot In The Dark"
    PERFORMER "AC/DC"
    REM COMPOSER ""
    FLAGS DCP
    INDEX 01 07:43:70
  TRACK 04 AUDIO
    TITLE "Through The Mists Of Time"
    PERFORMER "AC/DC"
    REM COMPOSER ""
    FLAGS DCP
    INDEX 01 10:49:05
  TRACK 05 AUDIO
    TITLE "Kick You When You're Down"
    PERFORMER "AC/DC"
    REM COMPOSER ""
    FLAGS DCP
    INDEX 01 14:21:22
  TRACK 06 AUDIO
    TITLE "Witch's Spell"
    PERFORMER "AC/DC"
    REM COMPOSER ""
    FLAGS DCP
    INDEX 01 17:31:47
  TRACK 07 AUDIO
    TITLE "Demon Fire"
    PERFORMER "AC/DC"
    REM COMPOSER ""
    FLAGS DCP
    INDEX 01 21:13:66
  TRACK 08 AUDIO
    TITLE "Wild Reputation"
    PERFORMER "AC/DC"
    REM COMPOSER ""
    FLAGS DCP
    INDEX 01 24:44:18
  TRACK 09 AUDIO
    TITLE "No Man's Land"
    PERFORMER "AC/DC"
    REM COMPOSER ""
    FLAGS DCP
    INDEX 01 27:38:48
  TRACK 10 AUDIO
    TITLE "Systems Down"
    PERFORMER "AC/DC"
    REM COMPOSER ""
    FLAGS DCP
    INDEX 01 31:18:21
  TRACK 11 AUDIO
    TITLE "Money Shot"
    PERFORMER "AC/DC"
    REM COMPOSER ""
    FLAGS DCP
    INDEX 01 34:30:69
  TRACK 12 AUDIO
    TITLE "Code Red"
    PERFORMER "AC/DC"
    REM COMPOSER ""
    FLAGS DCP
    INDEX 01 37:36:18






piratbit.org



Скачать AC-DC через торрент https://i114.fastpic.ru/big/2020/1114/96/f20fc3a2d8ee1e638e0f8d18f40ee796.png Скачать фильм AC-DC через торрент бесплантно в хорошем качестве Трэклист Realize (3:38) Rejection (4:07) Shot In The Dark (3:06) Through The Mists Of Time (3:33) Kick You ... 10 10 3
Торрент: Зарегистрирован [2020-11-14 17:48] · скачан: 26 раз
Статус: √ проверено
Размер: 419 MB
Как cкачать? Как скачать AC-DC через торрент | qTorrent

28-11-2019 20:33  

Отключить всю рекламу на сайте

    Дорогой пользователь! Огромная просьба, поблагодарите релизера, оцените раздачу и оставьте свои комментарий, если Вы скачали AC-DC через торрент бесплатно! Внесите свою лепту в развитие PiratBit!
    Комментировать посты могут только пользователи прошедшие не сложную регистрацию
    Показать сообщения:    

    AC-DC через торрент
    Скачать бесплатно AC-DC
    AC-DC скачать торрент
    AC-DC смотреть онлайн
    Cкачать фильм AC-DC бесплатно
    AC-DC скачать торрент в хорошем качестве
    AC-DC смотреть онлайн бесплатно в хорошем качестве


    Вы не можете начинать темы
    Вы не можете отвечать на сообщения
    Вы не можете редактировать свои сообщения
    Вы не можете удалять свои сообщения
    Вы не можете голосовать в опросах
    Вы не можете прикреплять файлы к сообщениям
    Вы можете скачивать файлы