1 сезон

3 сезон

iTunes

1

iTunes

DUB Netflix

iTunes

13

1 сезон

RePack

30

Deluxe

pack

Легкие деньги

ВАЖНО

ИГРА 18+

pack

RePack

MK11

RePack

jed

RePack

fifa19

RePack

RDR2

RePack

NEED FOR SPEED™ PAYBACK

4 сезон

9 сезон

Бесстыжие 9 сезон

Все сериалы

все сериалы на PB.wtf

RePack

FAR CRY 5

Anonymous, добрый день, мы не успеваем до 1 числа собрать деньги на оплату серверов, помогите нам пожалуйста в это трудное время. В качестве благодарности мы отключим Вам всю рекламу на сайте (укажите свой ник в строку Ваше имя)!

×
  
Magnet ссылка

Перевал Дятлова / Серии: 1-8 из 8 + Фильм о фильме (Валерий Федорович, Евгений Никишов, Павел Костомаров) [2020, Триллер, детектив, история, мистика, WEBRip-AVC] piratbit.org

Перевал Дятлова через торрент piratbit.org

Раздают: 3 [ 0 KB/s ]
Размер: 5.51 GB | Добавлен: 6 мес. назад | Торрент скачан:239 раз
Скачать  

17-11-2020 11:46 Перевал Дятлова Скачать торрент  

Перевал Дятлова
Год выпуска: 2020
Страна: Россия
Выпущено: LEGIO FELIX по заказу телеканала ТНТ
Жанр: Триллер, детектив, история, мистика
Продолжительность: ~ 00:52:00
Перевод: Не требуется
Субтитры: отсутствуют

Режиссер: Валерий Федорович, Евгений Никишов, Павел Костомаров, Степан Гордеев

rating

В ролях: Пётр Фёдоров (младший), Мария Луговая, Андрей Добровольский (II), Иван Мулин, Александр Метелкин (II), Маша Мацель, Ирина Лукина (II), Максим Емельянов, Егор Бероев, Евгений Антропов, Роман Евдокимов, Юрий Дейнекин, Максим Костромыкин, Алексей Бардуков, Андрей Арзяев, Азамат Нигманов, Алексей Сергеев, Александр Коновалов, Алексей Кирсанов, Павел Ворожцов, Олег Васильков, Ёндон Цог, Тимур Романов, Георгий Бессонов, Елена Маркова (VII), Сергей Шакуров, Кирилл Васильев, Алексей Вертков, Евгений Ткачук, Михаил Орлов (II)

Описание: Зима 1959 года. Уральские горы. Группа из девяти студентов под руководством Игоря Дятлова отправились в поход к заснеженным вершинам. Из этого путешествия живым не вернулся никто. Что произошло с туристами? Погибли под снежной лавиной, были убиты местными жителями или беглыми заключенными? Или же их смерть вызвана встречей со сверхъестественным? Это предстоит выяснить следственной группе под руководством майора Олега Костина. Отправившись на место происшествия, Костин понимает, что в этом деле слишком много деталей, которые не укладываются ни в одну из версий.

Качество: WEBRip-AVC
Формат: MKV

Видео: MPEG-4 AVC, ~ 1600 Кбит/с, 1024x432, 25 кадр/с
Аудио: 48.0 kHz, AC3 Dolby Digital, 2/0 (L,R) ch, ~ 192 kbps
скриншот  скриншот  скриншот  скриншот  скриншот  

General
Unique ID : 248751650376230574262378700549684735945 (0xBB23D34174CAFBC69ED8BD3B1D4C2FC9)
Complete name : F:\Перевал Дятлова.(2020).WEBRip.(AVC).Files-x\01.Pereval.Dyatlova.(2020).WEBRip.(AVC).by.Серый1779.Files-x.mkv
Format : Matroska
Format version : Version 2
File size : 733 MiB
Duration : 57 min 6 s
Overall bit rate : 1 793 kb/s
Encoded date : UTC 2020-11-17 04:09:56
Writing application : mkvmerge v7.8.0 ('River Man') 32bit built on Apr 3 2015 12:11:22
Writing library : libebml v1.3.1 + libmatroska v1.4.2

Video
ID : 1
Format : AVC
Format/Info : Advanced Video Codec
Format profile : High@L4.1
Format settings : CABAC / 9 Ref Frames
Format settings, CABAC : Yes
Format settings, RefFrames : 9 frames
Codec ID : V_MPEG4/ISO/AVC
Duration : 57 min 6 s
Bit rate : 1 600 kb/s
Width : 1 024 pixels
Height : 432 pixels
Display aspect ratio : 2.40:1
Frame rate mode : Constant
Frame rate : 25.000 FPS
Color space : YUV
Chroma subsampling : 4:2:0
Bit depth : 8 bits
Scan type : Progressive
Bits/(Pixel*Frame) : 0.145
Stream size : 640 MiB (87%)
Writing library : x264 core 146 r2538 121396c
Encoding settings : cabac=1 / ref=9 / deblock=1:-2:-1 / analyse=0x3:0x133 / me=umh / subme=9 / psy=1 / psy_rd=1.00:0.15 / mixed_ref=1 / me_range=32 / chroma_me=1 / trellis=2 / 8x8dct=1 / cqm=0 / deadzone=21,11 / fast_pskip=0 / chroma_qp_offset=-3 / threads=18 / lookahead_threads=3 / sliced_threads=0 / nr=0 / decimate=1 / interlaced=0 / bluray_compat=0 / constrained_intra=0 / bframes=9 / b_pyramid=2 / b_adapt=2 / b_bias=0 / direct=1 / weightb=1 / open_gop=0 / weightp=2 / keyint=250 / keyint_min=25 / scenecut=40 / intra_refresh=0 / rc=2pass / mbtree=0 / bitrate=1600 / ratetol=1.0 / qcomp=0.60 / qpmin=0 / qpmax=69 / qpstep=4 / cplxblur=20.0 / qblur=0.5 / ip_ratio=1.40 / pb_ratio=1.30 / aq=2:1.00
Default : Yes
Forced : No
Color range : Limited
Color primaries : BT.709
Transfer characteristics : BT.709
Matrix coefficients : BT.709

Audio
ID : 2
Format : AC-3
Format/Info : Audio Coding 3
Format settings, Endianness : Big
Codec ID : A_AC3
Duration : 57 min 6 s
Bit rate mode : Constant
Bit rate : 192 kb/s
Channel(s) : 2 channels
Channel positions : Front: L R
Sampling rate : 48.0 kHz
Frame rate : 31.250 FPS (1536 SPF)
Bit depth : 16 bits
Compression mode : Lossy
Stream size : 78.4 MiB (11%)
Service kind : Complete Main
Default : Yes
Forced : No

Когда раздача ведётся путём добавления новых серий, при каждом добавлении создётся новый торрент. Чтобы начать докачку новой серии, пользователям необходимо сделать следующее:
(1) остановить скачивание,
(2) удалить старый торрент у себя из клиента (старые серии удалять не надо),
(3) скачать новый торрент и запустить его у себя в клиенте вместо старого, при этом указать клиенту путь в старую папку, куда и должно происходить скачивание новых серий.
Ваш клиент при этом должен произвести хеширование (проверку) старой папки (если не производит сам - помогите ему сделать это), и будет докачивать только те серии, которых у вас ещё нет. Старые серии при этом не удаляются, а продолжают раздаваться!
Eсли вы уже удалили старые серии, то предотвратить повторную закачку старых серий можно, отжав галочку в соответсвующих местах при запуске нового торрента. По возможности, желательно не удалять старые серии как можно дольше, чтобы релизёр не столько продолжал раздавать старые серии, а смог сконцентрироваться на новых.

piratbit.org



Скачать Перевал Дятлова через торрент https://img11.lostpic.net/2020/11/16/77b5cce5ea29ceb077a9e968c2fe0b03.jpg Скачать фильм Перевал Дятлова через торрент бесплантно в хорошем качестве Описание: Зима 1959 года. Уральские горы. Группа из девяти студентов под руководством Игоря Дятлова отправились в поход к заснеженным ... 10 10 13
Info! Золотая раздача, скачанное не засчитывается.
Торрент: Зарегистрирован [2020-11-27 18:11] · скачан: 239 раз
Статус: √ проверено
Размер: 5.51 GB
Как cкачать? Как скачать Перевал Дятлова через торрент | UTorrent

% Раздел Тема Автор DL S | L
TNT serials [ 5.72 GB ] Перевал Дятлова / Серии: 1-8 из 8 + Фильм о фильме [2020 история WEBRip] bober100 Скачать
12 | 2
TNT serials [ 9.75 GB ] Перевал Дятлова / Серии: 1-8 из 8 + Фильм о фильме [2020 история WEBRip 720p] bober100 Скачать
9 | 0
TNT serials [ 5.49 GB ] Перевал Дятлова / Серии: 1-8 из 8 + Фильм о фильме [2020 история SATRip] bober100 Скачать
2 | 0
TNT serials [ 22.17 GB ] Перевал Дятлова / Серии: 1-8 из 8 + Фильм о фильме [2020 история HDTV 1080i] bober100 Скачать
3 | 0


Последний раз редактировалось: bober100 (2020-11-27 18:11), всего редактировалось 7 раз(а)

28-11-2019 20:33  

Отключить всю рекламу на сайте

17-11-2020 12:44 Перевал Дятлова Скачать торрент  

довольно не плохоpiratbit.org



    Дорогой пользователь! Огромная просьба, поблагодарите релизера, оцените раздачу и оставьте свои комментарий, если Вы скачали Перевал Дятлова через торрент бесплатно! Внесите свою лепту в развитие PiratBit!
    Комментировать посты могут только пользователи прошедшие не сложную регистрацию
    Показать сообщения:    

    Перевал Дятлова через торрент
    Скачать бесплатно Перевал Дятлова
    Перевал Дятлова скачать торрент
    Перевал Дятлова смотреть онлайн
    Cкачать фильм Перевал Дятлова бесплатно
    Перевал Дятлова скачать торрент в хорошем качестве
    Перевал Дятлова смотреть онлайн бесплатно в хорошем качестве


    Вы не можете начинать темы
    Вы не можете отвечать на сообщения
    Вы не можете редактировать свои сообщения
    Вы не можете удалять свои сообщения
    Вы не можете голосовать в опросах
    Вы не можете прикреплять файлы к сообщениям
    Вы можете скачивать файлы