Достать ножи: Стеклянная луковица

MVO

Добыча

Дубляж

Уэнсдэй

1 сезон

Тор

Дубляж

13 клиническая

1 сезон

Жестокая ночь

MVO

Одни из нас

1 сезон

Deluxe

pack

Рекомендуем

30

Пиратка

ВАЖНО

ВАЖНО

Ghostwire

Пиратка

jed

RePack

nioh2

RePack

RDR2

RePack

NEED FOR SPEED™ PAYBACK

RePack

скачать торрент

Кинопоиск HD

Острые козырьки 6 сезон

6 сезон

FAR CRY 6

RePack

скачать торрент

Лицензия

скачать торрент

MVO

1

1 сезон

скачать торрент

1 сезон

скачать торрент

Лицензия

  

Новые мутанты / Люди Икс: Новые мутанты / The New Mutants (Джош Бун) [2020, Ужасы, фантастика, боевик, UHD BDRemux 2160p] Дубляж [iTunes]

Новые мутанты через торрент piratbit.org

Размер: 45.5 GB | Добавлен: 2 года 2 мес. назад | Торрент скачан:165 раз
Смотреть онлайн | Скачать | Поддержите нас   

18-11-2020 17:23 Новые мутанты Скачать торрент  

Новые мутанты | Люди Икс: Новые мутанты | The New Mutants
Год выпуска: 2020
Страна: США
Выпущено: 20th Century Studios, Marvel Entertainment, Twentieth Century Fox
Жанр: Ужасы, фантастика, боевик
Продолжительность: 01:34:04
Перевод: Дублированный | iTunes
Субтитры: Русские (Full), английские

Режиссер: Джош Бун

rating
В ролях: Блю Хант, Алиси Брага. Мэйси Уильямс, Аня Тейлор-Джой, Чарли Хитон, Генри Зага, Адам Бич, Томас Ки, Колби Ганнетт, Хэппи Андерсон

Описание: Пятерых юных мутантов против их воли держат на секретном объекте в полной изоляции. Неожиданно вокруг них начинают твориться странные и пугающие происшествия, и герои оказываются в ситуации, требующей от них объединиться и приложить все свои умения ради собственного спасения.

Качество: UHD BDRemux 2160p
Формат: MKV

Видео: 3840x2160 at 23.976 fps, MPEG-H HEVC HDR Video, 64000 kbps avg
Аудио#1: 48 kHz, AC3, 5.1, 384 Kbps | iTunes | RUS |
Аудио#2: 48 kHz, TrueHD, 7.1, 4123 Kbps | Оригинал | ENG |

Аудио#3: 48 kHz, AC3, 5.1, 640 Kbps | Оригинал | ENG |

General
Unique ID : 287744779616118229716502194926507814281 (0xD879A0F52124A0F5AD6E7FFF81506D89)
Complete name : D:Video111The.New.Mutants.2020.BDREMUX.2160p.HDR.seleZen.mkv
Format : Matroska
Format version : Version 4
File size : 45.5 GiB
Duration : 1 h 34 min
Overall bit rate mode : Variable
Overall bit rate : 69.2 Mb/s
Movie name : The New Mutants 4K UHD 2020 from seleZen
Encoded date : UTC 2020-11-18 17:08:48
Writing application : mkvmerge v40.0.0 ('Old Town Road + Pony') 64-bit
Writing library : libebml v1.3.9 + libmatroska v1.5.2

Video
ID : 1
Format : HEVC
Format/Info : High Efficiency Video Coding
Format profile : Main 10@L5.1@High
HDR format : SMPTE ST 2086, HDR10 compatible
Codec ID : V_MPEGH/ISO/HEVC
Duration : 1 h 34 min
Bit rate : 64.0 Mb/s
Width : 3 840 pixels
Height : 2 160 pixels
Display aspect ratio : 16:9
Frame rate mode : Constant
Frame rate : 23.976 (24000/1001) FPS
Color space : YUV
Chroma subsampling : 4:2:0 (Type 2)
Bit depth : 10 bits
Bits/(Pixel*Frame) : 0.322
Stream size : 42.1 GiB (92%)
Writing library : ATEME Titan File 3.9.0 (4.9.0.0)
Language : English
Default : Yes
Forced : No
Color range : Limited
Color primaries : BT.2020
Transfer characteristics : PQ
Matrix coefficients : BT.2020 non-constant
Mastering display color pri : Display P3
Mastering display luminance : min: 0.0050 cd/m2, max: 1000 cd/m2

Audio #1
ID : 2
Format : AC-3
Format/Info : Audio Coding 3
Commercial name : Dolby Digital
Codec ID : A_AC3
Duration : 1 h 34 min
Bit rate mode : Constant
Bit rate : 384 kb/s
Channel(s) : 6 channels
Channel layout : L R C LFE Ls Rs
Sampling rate : 48.0 kHz
Frame rate : 31.250 FPS (1536 SPF)
Compression mode : Lossy
Stream size : 258 MiB (1%)
Title : iTunes
Language : Russian
Service kind : Complete Main
Default : Yes
Forced : Yes

Audio #2
ID : 3
Format : MLP FBA 16-ch
Format/Info : Meridian Lossless Packing FBA with 16-channel presentation
Commercial name : Dolby TrueHD with Dolby Atmos
Codec ID : A_TRUEHD
Duration : 1 h 34 min
Bit rate mode : Variable
Bit rate : 4 125 kb/s
Maximum bit rate : 8 931 kb/s
Channel(s) : 8 channels
Channel layout : L R C LFE Ls Rs Lb Rb
Sampling rate : 48.0 kHz
Frame rate : 1 200.000 FPS (40 SPF)
Compression mode : Lossless
Stream size : 2.71 GiB (6%)
Title : Original
Language : English
Default : No
Forced : No
Number of dynamic objects : 13
Bed channel count : 1 channel
Bed channel configuration : LFE

Audio #3
ID : 4
Format : AC-3
Format/Info : Audio Coding 3
Commercial name : Dolby Digital
Codec ID : A_AC3
Duration : 1 h 34 min
Bit rate mode : Constant
Bit rate : 640 kb/s
Channel(s) : 6 channels
Channel layout : L R C LFE Ls Rs
Sampling rate : 48.0 kHz
Frame rate : 31.250 FPS (1536 SPF)
Compression mode : Lossy
Stream size : 431 MiB (1%)
Language : English
Service kind : Complete Main
Default : No
Forced : No

Text #1
ID : 5
Format : UTF-8
Codec ID : S_TEXT/UTF8
Codec ID/Info : UTF-8 Plain Text
Duration : 1 h 26 min
Bit rate : 68 b/s
Count of elements : 993
Stream size : 43.3 KiB (0%)
Title : Full
Language : Russian
Default : No
Forced : No

Text #2
ID : 6
Format : UTF-8
Codec ID : S_TEXT/UTF8
Codec ID/Info : UTF-8 Plain Text
Duration : 1 h 26 min
Bit rate : 39 b/s
Count of elements : 1031
Stream size : 25.1 KiB (0%)
Title : Full
Language : English
Default : No
Forced : No

Text #3
ID : 7
Format : UTF-8
Codec ID : S_TEXT/UTF8
Codec ID/Info : UTF-8 Plain Text
Duration : 1 h 26 min
Bit rate : 50 b/s
Count of elements : 1343
Stream size : 32.1 KiB (0%)
Title : SDH
Language : English
Default : No
Forced : No

Menu
00:00:00.000 : en:Chapter 1
00:02:39.951 : en:Chapter 2
00:08:07.737 : en:Chapter 3
00:10:53.862 : en:Chapter 4
00:14:33.039 : en:Chapter 5
00:17:23.918 : en:Chapter 6
00:19:53.067 : en:Chapter 7
00:23:41.879 : en:Chapter 8
00:27:54.590 : en:Chapter 9
00:30:30.078 : en:Chapter 10
00:33:26.588 : en:Chapter 11
00:39:36.791 : en:Chapter 12
00:43:12.965 : en:Chapter 13
00:47:53.287 : en:Chapter 14
00:50:35.157 : en:Chapter 15
00:52:12.254 : en:Chapter 16
00:55:28.825 : en:Chapter 17
00:57:13.055 : en:Chapter 18
01:00:17.113 : en:Chapter 19
01:02:37.754 : en:Chapter 20
01:06:36.367 : en:Chapter 21
01:11:12.101 : en:Chapter 22
01:13:44.462 : en:Chapter 23
01:15:07.878 : en:Chapter 24
01:18:57.107 : en:Chapter 25
01:21:52.366 : en:Chapter 26
01:24:32.276 : en:Chapter 27
01:26:46.201 : en:Chapter 28




Скачать Новые мутанты через торрент https://st-kp-yandex-net.translate.goog/images/film_iphone/iphone360_910085.jpg Скачать, смотреть онлайн Новые мутанты бесплантно в хорошем качестве Описание: Пятерых юных мутантов против их воли держат на секретном объекте в полной изоляции. Неожиданно вокруг них начинают твориться ... 10 10 5
Торрент: Зарегистрирован [2020-11-18 17:23] · скачан: 165 раз
Статус: √ проверено
Размер: 45.5 GB
Как cкачать? Как скачать Новые мутанты через торрент | UTorrent

% Раздел Тема Автор DL S | L
Ultra HD (UHD: 2K, 4K, 8K) [ 17.1 GB ] Новые мутанты / Люди Икс: Новые мутанты / The New Mutants | iTunes | 2160p bober100 Скачать
2 | 0
Ultra HD (UHD: 2K, 4K, 8K) [ 20.01 GB ] Новые мутанты / Люди Икс: Новые мутанты / The New Mutants | iTunes | 2160p, (SDR bober100 Скачать
1 | 0
Фильмы 2019-2020 [DVDrip, WEB-DLRip, HDrip] (DUB, MVO) [ 746 MB ] Новые мутанты / Люди Икс: Новые мутанты / The New Mutants | iTunes | HDRip bober100 Скачать
2 | 0
Фильмы (Blu-ray, BD-Remux, HDDVD) [ 23.12 GB ] Новые мутанты / Люди Икс: Новые мутанты / The New Mutants | iTunes | BD Remux 1080p bober100 Скачать
1 | 0
Фильмы [HD 720p, 1080p] (Хороший звук DUB, MVO) [ 5.27 GB ] Новые мутанты / Люди Икс: Новые мутанты / The New Mutants | iTunes | 720p bober100 Скачать
1 | 0
Фильмы 2019-2020 [DVDrip, WEB-DLRip, HDrip] (DUB, MVO) [ 1.42 GB ] Новые мутанты / The New Mutants | Лицензия | BDRip Twi7ter Скачать
15 | 2
Фильмы [HD 720p, 1080p] (Хороший звук DUB, MVO) [ 10.39 GB ] Новые мутанты / Люди Икс: Новые мутанты / The New Mutants | iTunes | 1080p bober100 Скачать
1 | 0

28-11-2019 20:33  


Отключить вcю реклaмy на сайте, в т.ч. и в плеере онлайн просмотра!

    Дорогой пользователь! Огромная просьба, поблагодарите релизера, оцените раздачу и оставьте свои комментарий, если Вы скачали Новые мутанты через торрент бесплатно!!
    Комментировать посты могут только пользователи прошедшие не сложную регистрацию
    Показать сообщения:    


    Новые мутанты через торрент
    Скачать бесплатно Новые мутанты
    Новые мутанты скачать торрент
    Новые мутанты смотреть онлайн
    Cкачать фильм Новые мутанты бесплатно
    Новые мутанты скачать торрент в хорошем качестве
    Новые мутанты смотреть онлайн бесплатно в хорошем качестве
    Вы не можете начинать темы
    Вы не можете отвечать на сообщения
    Вы не можете редактировать свои сообщения
    Вы не можете удалять свои сообщения
    Вы не можете голосовать в опросах
    Вы не можете прикреплять файлы к сообщениям
    Вы можете скачивать файлы
    Новые мутанты / Люди Икс: Новые мутанты / The New Mutants [2020, Ужасы, фантастика, боевик, UHD BDRemux 2160p] Дубляж [iTunes] смотреть онлайн, скачать торрент picoco.icu