1 сезон

1 сезон

iTunes

1

iTunes

Кинопоиск HD

iTunes

13

1 сезон

RePack

30

Deluxe

ВАЖНО

ИГРА 18+

pack

RePack

MK11
pack

Легкие деньги

RePack

jed

RePack

fifa19

RePack

RDR2

RePack

NEED FOR SPEED™ PAYBACK

4 сезон

9 сезон

Бесстыжие 9 сезон

Все сериалы

все сериалы на PB.wtf

RePack

FAR CRY 5
  
Magnet ссылка

Цой (Алексей Учитель) [2020, Драма, биография, WEB-DL 1080p] [iTunes] piratbit.org

Цой через торрент piratbit.org

Раздают: 2 [ 0 KB/s ]
Размер: 3.41 GB | Добавлен: 3 мес. 14 д. назад | Торрент скачан:236 раз
Скачать  

19-11-2020 07:27 Цой Скачать торрент  

Цой
Год выпуска: 2020
Страна: Россия, Латвия, Литва
Студия: Mistrus Media, ТПО «Рок»
Жанр: Драма, биография
Продолжительность: 01:37:03
Перевод: Не требуется | iTunes
Субтитры: Русские (форс. вшитые)

Режиссер: Алексей Учитель

rating

В ролях: Евгений Цыганов, Марьяна Спивак, Паулина Андреева, Илья Дель, Игорь Верник, Надежда Калеганова, Мария Пересильд, Инга Тропа, Артурс Скрастыньш, Лилита Озолиня

Описание: Павел Шелест был правильный мужик. Не любил крутых поворотов, всегда старался поступать как положено. Но ему не повезло. 15 августа 1990 года на раскаленной трассе Слока-Талси в его автобус врезался «Москвич» Виктора Цоя. Кумир миллионов погиб на месте. Павел ничего не знал о Цое, не слушал его песен. Не знал он и того, что после этого рокового столкновения его жизнь больше никогда не будет прежней.

Качество: WEB-DL 1080p
Формат: MKV

Видео: MPEG-4 AVC, 4635 Кбит/с, 1920x804, 24 fps
Аудио: AC3, 48 kHz, 6 ch, ~384.00 kbps avg | русский | iTunes
скриншот  скриншот  скриншот  скриншот  

Complete name : Tsoy.2020.WEB-DL.1080p.ELEKTRI4KA.UNIONGANG.mkv
Format : Matroska
Format version : Version 4 / Version 2
File size : 3.41 GiB
Duration : 1 h 37 min
Overall bit rate : 5 021 kb/s
Movie name : Tsoy.2020.WEB-DL.1080p.ELEKTRI4KA.UNIONGANG.
Encoded date : UTC 2021-01-28 21:57:17
Writing application : mkvmerge v8.3.0 ('Over the Horizon') 64bit
Writing library : libebml v1.3.1 + libmatroska v1.4.2

Video
ID : 1
Format : AVC
Format/Info : Advanced Video Codec
Format profile : High@L4
Format settings, CABAC : Yes
Format settings, Reference frames : 5 frames
Codec ID : V_MPEG4/ISO/AVC
Duration : 1 h 37 min
Bit rate : 4 635 kb/s
Width : 1 920 pixels
Height : 804 pixels
Display aspect ratio : 2.40:1
Frame rate mode : Constant
Frame rate : 24.000 FPS
Color space : YUV
Chroma subsampling : 4:2:0
Bit depth : 8 bits
Scan type : Progressive
Bits/(Pixel*Frame) : 0.125
Stream size : 3.15 GiB (92%)
Language : English
Default : Yes
Forced : No
Color range : Limited
Color primaries : BT.709
Transfer characteristics : BT.709
Matrix coefficients : BT.709

Audio
ID : 2
Format : AC-3
Format/Info : Audio Coding 3
Mode extension : CM (complete main)
Format settings, Endianness : Big
Codec ID : A_AC3
Duration : 1 h 37 min
Bit rate mode : Constant
Bit rate : 384 kb/s
Channel(s) : 6 channels
Channel positions : Front: L C R, Side: L R, LFE
Sampling rate : 48.0 kHz
Frame rate : 31.250 FPS (1536 spf)
Bit depth : 16 bits
Compression mode : Lossy
Stream size : 267 MiB (8%)
Title : Original (iTunes)
Language : Russian
Default : Yes
Forced : No

Menu
00:00:00.000 : en:Глава 1
00:03:29.833 : en:Глава 2
00:08:27.333 : en:Глава 3
00:12:12.499 : en:Глава 4
00:17:48.749 : en:Глава 5
00:25:58.665 : en:Глава 6
00:34:07.623 : en:Глава 7
00:43:34.456 : en:Глава 8
00:47:58.706 : en:Глава 9
00:53:48.706 : en:Глава 10
00:59:01.539 : en:Глава 11
01:04:56.372 : en:Глава 12
01:12:26.622 : en:Глава 13
01:18:50.288 : en:Глава 14
01:25:05.454 : en:Глава 15

piratbit.org



Скачать Цой через торрент https://c.radikal.ru/c30/2101/95/a5cb78233c48.png Скачать фильм Цой через торрент бесплантно в хорошем качестве Описание: Павел Шелест был правильный мужик. Не любил крутых поворотов, всегда старался поступать как положено. Но ему не повезло. 15 ... 6.4 10 22
Торрент: Зарегистрирован [2021-01-29 03:54] · скачан: 236 раз
Статус: √ проверено
Размер: 3.41 GB
Как cкачать? Как скачать Цой через торрент | UTorrent

% Раздел Тема Автор DL S | L
Наши новые фильмы 2020 - 2021 [ 1.45 GB ] Цой [2020 WEB-DLRip-AVC] [RUS] от MediaBit Lithuania Скачать
14 | 0
Наши новые фильмы 2020 - 2021 [ 714 MB ] Цой [2020 WEB-DLRip] coc900 Скачать
2 | 0
Рок, Панк, Альтернатива (lossless) [ 6.91 GB ] Виктор Цой и группа КИНО - полная дискография на 25 блинах - 2002 [FLAC ] Anonymous Скачать
4 | 1
Архив (Многоканальная музыка и собственные оцифровки) [ 6.66 GB ] VA - Виктор Цой и группа КИНО - DTS Upmix 1411 kbps cataman Скачать
1 | 1
Наши новые фильмы 2020 - 2021 [ 1.46 GB ] Цой [2020 биография WEB-DLRip] bober100 Скачать
5 | 0
Отечественная Поп музыка (mp3) [ 108 MB ] Анита Цой - Нации победителей посвящается... 2020 / MP3 / 320 kbps / Военные песни bober100 Скачать
1 | 0
Рок, Панк, Альтернатива (lossless) [ 1.42 GB ] Виктор Цой - 55 [3CD] 2017 / FLAC / lossless / Rock bober100 Скачать
3 | 0


Последний раз редактировалось: bober100 (2021-01-29 03:54), всего редактировалось 2 раз(а)

28-11-2019 20:33  

Отключить всю рекламу на сайте


30-01-2021 14:54 Цой Скачать торрент  

шляпа
учитель может лучшеpiratbit.org



28-04-2021 13:35 Цой Скачать торрент  

так себеpiratbit.org



    Дорогой пользователь! Огромная просьба, поблагодарите релизера, оцените раздачу и оставьте свои комментарий, если Вы скачали Цой через торрент бесплатно! Внесите свою лепту в развитие PiratBit!
    Комментировать посты могут только пользователи прошедшие не сложную регистрацию
    Показать сообщения:    

    Цой через торрент
    Скачать бесплатно Цой
    Цой скачать торрент
    Цой смотреть онлайн
    Cкачать фильм Цой бесплатно
    Цой скачать торрент в хорошем качестве
    Цой смотреть онлайн бесплатно в хорошем качестве


    Вы не можете начинать темы
    Вы не можете отвечать на сообщения
    Вы не можете редактировать свои сообщения
    Вы не можете удалять свои сообщения
    Вы не можете голосовать в опросах
    Вы не можете прикреплять файлы к сообщениям
    Вы можете скачивать файлы