Ссылка на приватное зеркало нашего сайта всего за 1$. Внимание количество ограничено!!!

2 сезон

iTunes

1 сезон

1

2 сезон

2 сезон

iTunes

1 сезон

RePack

30

Новинка

ВАЖНО

ИГРА 18+

pack

RePack

MK11
pack

Забери бонус

RePack

jed

!!Акция!!

Alien_Rage

RePack

fifa19

RePack

Assassins Creed: Odyssey

RePack

NEED FOR SPEED™ PAYBACK

4 сезон

9 сезон

Бесстыжие 9 сезон

Все сериалы

все сериалы на PB.wtf

RePack

FAR CRY 5
  

Стендапер по жизни / Standing Up, Falling Down (Мэтт Рэтнер) [2019, Драма, комедия, BDRip 1080p] DUB [iTunes] piratbit.org

Стендапер по жизни через торрент piratbit.org

Раздают: 3 [ 0 KB/s ]
Размер: 8.84 GB | Добавлен: 15 д. назад | Торрент скачан:41 раз
Скачать  

20-11-2020 13:09 Стендапер по жизни Скачать торрент  

Стендапер по жизни | Standing Up, Falling Down
Год выпуска: 2019
Страна: США
Студия: Tilted Windmill Productions, Whitewater Films, Mangano Movies & Media
Жанр: Драма, комедия
Продолжительность: 01:31:16
Перевод: Дублированный | iTunes
Субтитры: Русские (Full), английские

Режиссер: Мэтт Рэтнер

rating

В ролях: Билли Кристал, Бен Шварц, Элоиза Мамфорд, Грэйс Гаммер, Нэйт Корддри, Джилл Хеннесси, Кэйтлин МакГи, Дэвид Кастанеда, Леонард Оузтс, Джон Белманн

Описание: Не сумев добиться успеха в Лос-Анджелесе, немолодой комик вынужден вернуться домой на Лонг-Айленд. По воле случая он знакомится с обаятельным, но пьющим дерматологом, тоже переживающим жизненный кризис. Найдя друг в друге отдушину, они начинают вместе карабкаться наверх…

Качество: BDRip 1080p
Формат: MKV

Видео: MPEG-4 AVC, 1920x1024, 12.8 Mbit/s, 23.976 fps
Аудио #01: 48 kHz, AC3, 5.1, 384 Kbps | iTunes | RUS |
Аудио #02: 48 kHz, AC3, 5.1, 640 Kbps | Оригинал | ENG |
скриншот  скриншот  скриншот  скриншот  скриншот  

General
Unique ID : 107040447354470147510819545739467264898 (0x50873D831FFCBA2E74D510CC7B399382)
Complete name : D:Video111Standing.Up,.Falling.Down.2019.BDRip.1080p.seleZen.mkv
Format : Matroska
Format version : Version 4
File size : 8.84 GiB
Duration : 1 h 31 min
Overall bit rate : 13.9 Mb/s
Movie name : Standing Up Falling Down 2019 from seleZen
Encoded date : UTC 2020-11-20 12:43:47
Writing application : mkvmerge v40.0.0 ('Old Town Road + Pony') 64-bit
Writing library : libebml v1.3.9 + libmatroska v1.5.2

Video
ID : 1
Format : AVC
Format/Info : Advanced Video Codec
Format profile : High@L4.1
Format settings : CABAC / 4 Ref Frames
Format settings, CABAC : Yes
Format settings, Reference : 4 frames
Codec ID : V_MPEG4/ISO/AVC
Duration : 1 h 31 min
Bit rate : 12.8 Mb/s
Width : 1 920 pixels
Height : 1 024 pixels
Display aspect ratio : 1.85:1
Frame rate mode : Constant
Frame rate : 23.976 (24000/1001) FPS
Color space : YUV
Chroma subsampling : 4:2:0
Bit depth : 8 bits
Scan type : Progressive
Bits/(Pixel*Frame) : 0.272
Stream size : 8.18 GiB (93%)
Title : iFT
Writing library : x264 core 161 r3018+53 ~ Encoded by Mocunaman in Portugal
Encoding settings : cabac=1 / ref=4 / deblock=1:-3:-3 / analyse=0x3:0x113 / me=umh / subme=11 / psy=1 / fade_compensate=0.00 / psy_rd=1.00:0.00 / mixed_ref=1 / me_range=32 / chroma_me=1 / trellis=2 / 8x8dct=1 / cqm=0 / deadzone=21,11 / fast_pskip=0 / chroma_qp_offset=-2 / threads=32 / lookahead_threads=5 / sliced_threads=0 / nr=0 / decimate=0 / interlaced=0 / bluray_compat=0 / constrained_intra=0 / fgo=0 / bframes=8 / b_pyramid=2 / b_adapt=2 / b_bias=0 / direct=3 / weightb=1 / open_gop=0 / weightp=2 / keyint=250 / keyint_min=23 / scenecut=40 / intra_refresh=0 / rc_lookahead=60 / rc=crf / mbtree=0 / crf=16.6000 / qcomp=0.60 / qpmin=0:0:0 / qpmax=69:69:69 / qpstep=4 / vbv_maxrate=62500 / vbv_bufsize=78125 / crf_max=0.0 / nal_hrd=none / filler=0 / ip_ratio=1.30 / pb_ratio=1.20 / aq=3:0.80 / aq-sensitivity=10.00 / aq-factor=1.00:1.00:1.00 / aq2=0 / aq3=0 / zones=6833,14102,crf=16.1/21756,29220,crf=16.1/33996,55716,crf=16.1/82044,89868,crf=16.1/114114,117858,crf=15.9
Language : English
Default : Yes
Forced : No
Color range : Limited
Color primaries : BT.709
Transfer characteristics : BT.709
Matrix coefficients : BT.709

Audio #1
ID : 2
Format : AC-3
Format/Info : Audio Coding 3
Commercial name : Dolby Digital
Codec ID : A_AC3
Duration : 1 h 31 min
Bit rate mode : Constant
Bit rate : 384 kb/s
Channel(s) : 6 channels
Channel layout : L R C LFE Ls Rs
Sampling rate : 48.0 kHz
Frame rate : 31.250 FPS (1536 SPF)
Compression mode : Lossy
Stream size : 251 MiB (3%)
Title : iTunes
Language : Russian
Service kind : Complete Main
Default : Yes
Forced : Yes

Audio #2
ID : 3
Format : AC-3
Format/Info : Audio Coding 3
Commercial name : Dolby Digital
Codec ID : A_AC3
Duration : 1 h 31 min
Bit rate mode : Constant
Bit rate : 640 kb/s
Channel(s) : 6 channels
Channel layout : L R C LFE Ls Rs
Sampling rate : 48.0 kHz
Frame rate : 31.250 FPS (1536 SPF)
Compression mode : Lossy
Stream size : 418 MiB (5%)
Title : Original
Language : English
Service kind : Complete Main
Default : No
Forced : No

Text #1
ID : 4
Format : UTF-8
Codec ID : S_TEXT/UTF8
Codec ID/Info : UTF-8 Plain Text
Duration : 1 h 27 min
Bit rate : 139 b/s
Count of elements : 1977
Stream size : 89.2 KiB (0%)
Title : Full
Language : Russian
Default : No
Forced : No

Text #2
ID : 5
Format : UTF-8
Codec ID : S_TEXT/UTF8
Codec ID/Info : UTF-8 Plain Text
Duration : 1 h 25 min
Bit rate : 90 b/s
Count of elements : 1944
Stream size : 56.9 KiB (0%)
Title : Full
Language : English
Default : No
Forced : No

Text #3
ID : 6
Format : UTF-8
Codec ID : S_TEXT/UTF8
Codec ID/Info : UTF-8 Plain Text
Duration : 1 h 30 min
Bit rate : 92 b/s
Count of elements : 2155
Stream size : 61.4 KiB (0%)
Title : SDH
Language : English
Default : No
Forced : No

Menu
00:00:00.000 : en:Chapter 01
00:09:11.676 : en:Chapter 02
00:20:20.511 : en:Chapter 03
00:30:15.230 : en:Chapter 04
00:38:46.074 : en:Chapter 05
00:45:37.026 : en:Chapter 06
00:52:16.425 : en:Chapter 07
01:00:14.027 : en:Chapter 08
01:06:03.877 : en:Chapter 09
01:15:20.474 : en:Chapter 10
01:21:53.325 : en:Chapter 11
01:27:20.735 : en:Chapter 12

piratbit.org



Скачать Стендапер по жизни через торрент https://img10.lostpic.net/2020/03/20/03465537238d7e5b701a728e92d3b477.jpg Скачать фильм Стендапер по жизни через торрент бесплантно в хорошем качестве Описание: Не сумев добиться успеха в Лос-Анджелесе, немолодой комик вынужден вернуться домой на Лонг-Айленд. По воле случая он знакомится с ... 10 10 6
Торрент: Зарегистрирован [2020-11-20 13:09] · скачан: 41 раз
Статус: √ проверено
Размер: 8.84 GB
Как cкачать? Как скачать Стендапер по жизни через торрент | qTorrent

% Раздел Тема Автор DL S | L
Фильмы 2019-2020 [DVDrip, WEB-DLRip, HDrip] (DUB, MVO) [ 1.45 GB ] Стендапер по жизни / Standing Up Falling Down [2019 WEB-DLRip-AVC] от MediaBit Lithuania Скачать
2 | 1
Фильмы 2019-2020 [DVDrip, WEB-DLRip, HDrip] (DUB, MVO) [ 1.42 GB ] Стендапер по жизни / Standing Up Falling Down [2019 BDRip] - Twi7ter Скачать
4 | 0
Фильмы 2019-2020 [DVDrip, WEB-DLRip, HDrip] (DUB, MVO) [ 1.42 GB ] Стендапер по жизни / Standing Up Falling Down [2019 BDRip] bober100 Скачать
3 | 0
Фильмы (WEB-DL 720p, 1080p) [ 5.29 GB ] Стендапер по жизни / Standing Up Falling Down [2019 WEB-DL 1080p ] bober100 Скачать
1 | 0

28-11-2019 20:33  

Отключить всю рекламу на сайте

    Дорогой пользователь! Огромная просьба, поблагодарите релизера, оцените раздачу и оставьте свои комментарий, если Вы скачали Стендапер по жизни через торрент бесплатно! Внесите свою лепту в развитие PiratBit!
    Комментировать посты могут только пользователи прошедшие не сложную регистрацию
    Показать сообщения:    

    Стендапер по жизни через торрент
    Скачать бесплатно Стендапер по жизни
    Стендапер по жизни скачать торрент
    Стендапер по жизни смотреть онлайн
    Cкачать фильм Стендапер по жизни бесплатно
    Стендапер по жизни скачать торрент в хорошем качестве
    Стендапер по жизни смотреть онлайн бесплатно в хорошем качестве


    Вы не можете начинать темы
    Вы не можете отвечать на сообщения
    Вы не можете редактировать свои сообщения
    Вы не можете удалять свои сообщения
    Вы не можете голосовать в опросах
    Вы не можете прикреплять файлы к сообщениям
    Вы можете скачивать файлы