Ссылка на приватное зеркало нашего сайта всего за 1$. Внимание количество ограничено!!!

2 сезон

iTunes

1 сезон

1

2 сезон

2 сезон

iTunes

1 сезон

RePack

30

Новинка

ВАЖНО

ИГРА 18+

pack

RePack

MK11
pack

Забери бонус

RePack

jed

!!Акция!!

Alien_Rage

RePack

fifa19

RePack

Assassins Creed: Odyssey

RePack

NEED FOR SPEED™ PAYBACK

4 сезон

9 сезон

Бесстыжие 9 сезон

Все сериалы

все сериалы на PB.wtf

RePack

FAR CRY 5
  

Русские пышечки (Нестор Петрович) [2004 г., Толстушки, DVD5] piratbit.org

Русские пышечки через торрент piratbit.org

Раздают: 1 [ 0 KB/s ]
Размер: 3.68 GB | Добавлен: 14 д. назад | Торрент скачан:78 раз
Скачать  

21-11-2020 06:16 Русские пышечки Скачать торрент  

Русские пышечки
Год выпуска: 2004

Страна: Россия

Жанр: Толстушки

Продолжительность: 01:45:15

Режиссер: Нестор Петрович

В ролях: Анна Сладкова и другие, Аркадий Тренажеров, Василий Дружбанов, домохозйка Наташа, Злоебучка, Иван Прительский, Кат, Матрена, электрики

Описание: О чём может мечтать домохозйка на своей уютной, чистенькой кухоньке, когда всё уже сварено, поджарено, протёрто, нарезано и замариновано? Вопрос – риторический! Она мечтает о твёрдом, в меру упитанном члене своего соседа! А эта пухленька обладательница шикарного мебельного гарнитура? Всё о том же. Только теперь это уже не сосед, а пара банальных работников коммунальных служб. И так - везде и всегда!
Качество: DVD5
Формат: DVD Video
Видео: 720x576, MPEG 2, 4065 Кбит/сек
Аудио: Русский, AC3, 2 ch, 192 Кбит/сек
Видео
Идентификатор : 224 (0xE0)
Формат : MPEG Video
Версия формата : Version 2
Профиль формата : Main@Main
Настройки формата : BVOP
Параметр BVOP формата : Да
Параметр матрицы формата : По умолчанию
Параметр GOP формата : M=3, N=15
Структура изображения : Frame
Продолжительность : 32 м. 57 с.
Вид битрейта : Постоянный
Битрейт : 4065 Кбит/сек
Максимальный битрейт : 4000 Кбит/сек
Ширина : 720 пикселей
Высота : 576 пикселей
Соотношение сторон : 4:3
Частота кадров : 25,000 кадров/сек
Стандарт вещания : PAL
Цветовое пространство : YUV
Субдискретизация насыщенности : 4:2:0
Битовая глубина : 8 бит
Тип развёртки : Чересстрочная
Порядок развёртки : Верхнее поле первое
Метод сжатия : С потерями
Бит/(Пиксели*Кадры) : 0.392
Временной код первого кадра : 00:00:00:00
Оригинал временного кода : Group of pictures header
GOP, открыто/закрыто : Открыто
GOP, открыто/закрыто на первом кадре : Закрыто
Размер потока : 958 Мбайт (94%)

Аудио
Идентификатор : 189 (0xBD)-128 (0x80)
Формат : AC-3
Формат/Информация : Audio Coding 3
Коммерческое название : Dolby Digital
Режим смешивания : DVD-Video
Продолжительность : 32 м. 57 с.
Вид битрейта : Постоянный
Битрейт : 192 Кбит/сек
Каналы : 2 канала
ChannelLayout : L R
Частота : 48,0 КГц
Частота кадров : 31,250 кадров/сек (1536 SPF)
Метод сжатия : С потерями
Размер потока : 45,3 Мбайт (4%)
ServiceKind/String : Complete Main

скриншот   скриншот   скриншот   скриншот   скриншот  

piratbit.org



pack Скачать Русские пышечки через торрент http://i59.fastpic.ru/big/2014/0409/0a/f856480a412f13d631315cd66c96380a.jpg Скачать фильм Русские пышечки через торрент бесплантно в хорошем качестве Описание: О чём может мечтать домохозйка на своей уютной, чистенькой кухоньке, когда всё уже сварено, поджарено, протёрто, нарезано и ... 10 10 6
Info! Золотая раздача, скачанное не засчитывается.
Торрент: Зарегистрирован [2020-11-21 06:16] · скачан: 78 раз
Статус: √ проверено
Размер: 3.68 GB
Как cкачать? Как скачать Русские пышечки через торрент | qTorrent

28-11-2019 20:33  

Отключить всю рекламу на сайте

22-11-2020 04:09 Русские пышечки Скачать торрент  

Топик был перенесен из форума Полнометражные порно фильмы в форум Русские порно фильмы


Pir@tya2010piratbit.org



pack
    Дорогой пользователь! Огромная просьба, поблагодарите релизера, оцените раздачу и оставьте свои комментарий, если Вы скачали Русские пышечки через торрент бесплатно! Внесите свою лепту в развитие PiratBit!
    Комментировать посты могут только пользователи прошедшие не сложную регистрацию
    Показать сообщения:    

    Русские пышечки через торрент
    Скачать бесплатно Русские пышечки
    Русские пышечки скачать торрент
    Русские пышечки смотреть онлайн
    Cкачать фильм Русские пышечки бесплатно
    Русские пышечки скачать торрент в хорошем качестве
    Русские пышечки смотреть онлайн бесплатно в хорошем качестве


    Вы не можете начинать темы
    Вы не можете отвечать на сообщения
    Вы не можете редактировать свои сообщения
    Вы не можете удалять свои сообщения
    Вы не можете голосовать в опросах
    Вы не можете прикреплять файлы к сообщениям
    Вы можете скачивать файлы