Ссылка на приватное зеркало нашего сайта всего за 1$. Внимание количество ограничено!!!

2 сезон

iTunes

1 сезон

1

2 сезон

2 сезон

iTunes

1 сезон

RePack

30

Ultimate

ВАЖНО

ИГРА 18+

pack

RePack

MK11
pack

Забери бонус

RePack

jed

!!Акция!!

Alien_Rage

RePack

fifa19

RePack

Assassins Creed: Odyssey

RePack

NEED FOR SPEED™ PAYBACK

4 сезон

9 сезон

Бесстыжие 9 сезон

Все сериалы

все сериалы на PB.wtf

RePack

FAR CRY 5
  

Аутло (Ксения Ратушная) [2019 г., драма, WEB-DLRip, Не требуется Русский "Tunes"] piratbit.org

Аутло через торрент piratbit.org

Раздают: 2 [ 0 KB/s ]
Размер: 710 MB | Добавлен: 13 д. назад | Торрент скачан:9 раз
Скачать  

21-11-2020 16:09 Аутло Скачать торрент  

Аутло
Год выпуска: 2019
Страна: Россия / ANT!PODE Sales & Distribution, Irony Production, Chibis Production
Жанр: драма
Продолжительность: 01:35:38
Перевод: Не требуется Русский (Tunes)

Режиссер: Ксения Ратушная

rating

В ролях: Виктор Тарасенко, Елизавета Кашинцева, Евгений Шварцман, Глеб Калюжный, Сергей Епишев, Виталий Кудрявцев, Андрей Москвичев, Евгений Даль, Николай Сахаров, Сергей Двойников

Описание: Старшеклассник-гей и загадочная бунтарка пытаются добиться взаимности одного и того же парня. Генерал и танцовщица-трансгендер в 1980-х ставят на кон карьеру и жизнь, чтобы быть вместе.

Качество: WEB-DLRip
Формат: AVI
Видео кодек: DivX
Аудио кодек: MP3
Видео: 640x272 (2.35:1), 25 fps, DivX Codec 4.x ~900 kbps avg, 0.21 bit/pixel
Аудио: 48 kHz, MPEG Layer 3, 2 ch, ~128.00 kbps avg
скриншот   скриншот   скриншот   скриншот   скриншот   скриншот   скриншот   скриншот  

Общее
Полное имя : F:\ФИЛЬМЫ\Аутло.2019.WEB-DLRip.avi
Формат : AVI
Формат/Информация : Audio Video Interleave
Размер файла : 710 Мбайт
Продолжительность : 1 ч. 35 м.
Общий поток : 1 038 Кбит/сек
Программа кодирования : VirtualDubMod 1.5.10.3 | www.virtualdub-fr.org || (build 2550/release)
Библиотека кодирования : VirtualDubMod build 2550/release

Видео
Идентификатор : 0
Формат : MPEG-4 Visual
Профиль формата : Advanced Simple@L5
Настройки формата : BVOP3 / GMC3 / QPel
Параметр BVOP формата : 3
Параметр QPel формата : Да
Параметр GMC формата : 3 точки перехода
Параметр матрицы формата : Default (MPEG)
Идентификатор кодека : DIVX
Идентификатор кодека/Информация : Project Mayo
Идентификатор кодека/Подсказка : DivX 4
Продолжительность : 1 ч. 35 м.
Битрейт : 900 Кбит/сек
Ширина : 640 пикселей
Высота : 272 пикселя
Соотношение сторон : 2,35:1
Частота кадров : 25,000 кадров/сек
Цветовое пространство : YUV
Субдискретизация насыщенности : 4:2:0
Битовая глубина : 8 бит
Тип развёртки : Прогрессивная
Метод сжатия : С потерями
Бит/(Пиксели*Кадры) : 0.207
Размер потока : 616 Мбайт (87%)
Библиотека кодирования : XviD 1.2.1 (UTC 2008-12-04)

Аудио
Идентификатор : 1
Формат : MPEG Audio
Версия формата : Version 1
Профиль формата : Layer 3
Настройки формата : Joint stereo / MS Stereo
Идентификатор кодека : 55
Идентификатор кодека/Подсказка : MP3
Продолжительность : 1 ч. 35 м.
Вид битрейта : Постоянный
Битрейт : 128 Кбит/сек
Каналы : 2 канала
Частота : 48,0 КГц
Частота кадров : 41,667 кадра/сек (1152 SPF)
Метод сжатия : С потерями
Размер потока : 87,6 Мбайт (12%)
Выравнивание : Соединение по промежуткам
Продолжительность промежутка : 40 мс. (1,00 видеокадр)
Время предзагрузки промежутка : 504 мс.
Библиотека кодирования : LAME3.99r
Настройки программы : -m j -V 4 -q 2 -lowpass 17 -b 128

piratbit.org



Скачать Аутло через торрент https://pic1.kartinco.top/images/12/6u789.jpg Скачать фильм Аутло через торрент бесплантно в хорошем качестве Описание: Старшеклассник-гей и загадочная бунтарка пытаются добиться взаимности одного и того же парня. Генерал и танцовщица-трансгендер в ... 5.5 10 4
Торрент: Зарегистрирован [2020-11-21 16:09] · скачан: 9 раз
Статус: √ проверено
Размер: 710 MB
Как cкачать? Как скачать Аутло через торрент | qTorrent

% Раздел Тема Автор DL S | L
Наши фильмы (HD, WEB-DL 720p, 1080p) [ 3.37 GB ] Аутло [2019 WEB-DL 1080p] bober100 Скачать
2 | 0
Наши новые фильмы 2018-2019 [ 1.46 GB ] Аутло [2019 WEB-DLRip] bober100 Скачать
2 | 0
Наши новые фильмы 2018-2019 [ 1.45 GB ] Аутло [2019 WEB-DLRip-AVC] bober100 Скачать
1 | 0

28-11-2019 20:33  

Отключить всю рекламу на сайте

    Дорогой пользователь! Огромная просьба, поблагодарите релизера, оцените раздачу и оставьте свои комментарий, если Вы скачали Аутло через торрент бесплатно! Внесите свою лепту в развитие PiratBit!
    Комментировать посты могут только пользователи прошедшие не сложную регистрацию
    Показать сообщения:    

    Аутло через торрент
    Скачать бесплатно Аутло
    Аутло скачать торрент
    Аутло смотреть онлайн
    Cкачать фильм Аутло бесплатно
    Аутло скачать торрент в хорошем качестве
    Аутло смотреть онлайн бесплатно в хорошем качестве


    Вы не можете начинать темы
    Вы не можете отвечать на сообщения
    Вы не можете редактировать свои сообщения
    Вы не можете удалять свои сообщения
    Вы не можете голосовать в опросах
    Вы не можете прикреплять файлы к сообщениям
    Вы можете скачивать файлы