Ссылка на приватное зеркало нашего сайта всего за 1$. Внимание количество ограничено!!!

2 сезон

iTunes

1 сезон

1

2 сезон

2 сезон

iTunes

1 сезон

RePack

30

Ultimate

ВАЖНО

ИГРА 18+

pack

RePack

MK11
pack

Забери бонус

RePack

jed

!!Акция!!

Alien_Rage

RePack

fifa19

RePack

Assassins Creed: Odyssey

RePack

NEED FOR SPEED™ PAYBACK

4 сезон

9 сезон

Бесстыжие 9 сезон

Все сериалы

все сериалы на PB.wtf

RePack

FAR CRY 5
  

Шуша / Сезон: 1 / Серии: 1-16 из 16 (Александр Будённый) [2020, Детектив, WEB-DL 1080p] piratbit.org

Шуша через торрент piratbit.org

Размер: 26.01 GB | Добавлен: 5 д. назад | Торрент скачан:12 раз
Скачать  

21-11-2020 18:49 Шуша Скачать торрент  

Шуша
Год выпуска: 2020
Страна: Украина
Выпущено: Кинокомпания "Star Media" по заказу телеканала Россия-1 и ТРК Украина
Жанр: Детектив
Продолжительность: ~ 00:45:00
Перевод: Не требуется
Субтитры: отсутствуют

Режиссер: Александр Будённый

В ролях: Анастасия Панина, Иван Оганесян, Сергей Деньга, Елена Коренева, Александр Данильченко, Вероника Лукьяненко, Даниил Каменский, Ксения Мишина, Даниил Мирешкин, Николай Кий, Сергей Кисель, Елена Оларь, Александр Бегма, Мила Рымарь, Вячеслав Белозоров

Описание: Главная героиня – эксперт-криминалист Александра Ладынина, которая живет ради любимой работы и верит только фактам. Шуша считает, что главное в жизни – логика, внимательность, аккуратность и верно просчитанный жизненный алгоритм. В свои 35 лет она не завела семьи и по-прежнему категорически против каких-либо отношений. Девушка убеждена, что они притупляют остроту ума, внимательность и вообще отвлекают. Шуша живет своей работой и любому романтическому свиданию предпочтет прогулку по месту преступления...

Качество: WEB-DL 1080p
Формат: MKV

Видео: MPEG-4 AVC, ~ 5000 Кбит/с, 1920x1080, 25 кадр/с
Аудио: 48.0 kHz, AC3 Dolby Digital, 2/0 (L,R) ch, ~ 192 kbps
скриншот  скриншот  скриншот  скриншот  скриншот  

General
Unique ID : 190143664297775807533921186951471343717 (0x8F0C56723D5F73869DC60F8AB2C0A865)
Complete name : C:01.Шуша.s01.E01.(2020).WEB-DL (1080p).by.Nicodem.Files-x.mkv
Format : Matroska
File size : 1.60 GiB
Duration : 44mn 31s
Overall bit rate : 5 159 Kbps
Encoded date : UTC 2020-11-10 10:55:46
Writing application : mkvmerge v7.8.0 ('River Man') 32bit built on Apr 3 2015 12:11:22
Writing library : libebml v1.3.1 + libmatroska v1.4.2

Video
ID : 1
Format : AVC
Format/Info : Advanced Video Codec
Format profile : High@L4.1
Format settings, CABAC : Yes
Format settings, ReFrames : 3 frames
Format settings, GOP : M=2, N=33
Codec ID : V_MPEG4/ISO/AVC
Duration : 44mn 31s
Bit rate mode : Constant
Bit rate : 5 000 Kbps
Width : 1 920 pixels
Height : 1 080 pixels
Display aspect ratio : 16:9
Frame rate : 25.000 fps
Standard : PAL
Color space : YUV
Chroma subsampling : 4:2:0
Bit depth : 8 bits
Scan type : Progressive
Bits/(Pixel*Frame) : 0.096
Stream size : 1.51 GiB (94%)
Color primaries : BT.709-5, BT.1361, IEC 61966-2-4, SMPTE RP177
Transfer characteristics : BT.709-5, BT.1361
Matrix coefficients : BT.709-5, BT.1361, IEC 61966-2-4 709, SMPTE RP177

Audio
ID : 2
Format : AC-3
Format/Info : Audio Coding 3
Mode extension : CM (complete main)
Codec ID : A_AC3
Duration : 44mn 31s
Bit rate mode : Constant
Bit rate : 192 Kbps
Channel(s) : 2 channels
Channel positions : Front: L R
Sampling rate : 44.1 KHz
Bit depth : 16 bits
Compression mode : Lossy
Delay relative to video : 52ms
Stream size : 61.2 MiB (4%)

piratbit.org



Скачать Шуша через торрент https://i114.fastpic.ru/big/2020/1110/88/8f940e8f8e67ba5b8cfebf7911e8b988.jpg Скачать фильм Шуша через торрент бесплантно в хорошем качестве Описание: Главная героиня – эксперт-криминалист Александра Ладынина, которая живет ради любимой работы и верит только фактам. Шуша считает, ... 10 10 3
Торрент: Зарегистрирован [2020-11-21 18:49] · скачан: 12 раз
Статус: √ проверено
Размер: 26.01 GB
Как cкачать? Как скачать Шуша через торрент | qTorrent

% Раздел Тема Автор DL S | L
Наши сериалы [ 9.13 GB ] Шуша / Сезон: 1 / Серии: 1-16 из 16 [2020 WEB-DLRip] bober100 Скачать
11 | 0
Наши сериалы [ 9.03 GB ] Шуша / Сезон: 1 / Серии: 1-16 из 16 [2020 WEB-DLRip-AVC] bober100 Скачать
8 | 0

28-11-2019 20:33  

Отключить всю рекламу на сайте

    Дорогой пользователь! Огромная просьба, поблагодарите релизера, оцените раздачу и оставьте свои комментарий, если Вы скачали Шуша через торрент бесплатно! Внесите свою лепту в развитие PiratBit!
    Комментировать посты могут только пользователи прошедшие не сложную регистрацию
    Показать сообщения:    

    Шуша через торрент
    Скачать бесплатно Шуша
    Шуша скачать торрент
    Шуша смотреть онлайн
    Cкачать фильм Шуша бесплатно
    Шуша скачать торрент в хорошем качестве
    Шуша смотреть онлайн бесплатно в хорошем качестве


    Вы не можете начинать темы
    Вы не можете отвечать на сообщения
    Вы не можете редактировать свои сообщения
    Вы не можете удалять свои сообщения
    Вы не можете голосовать в опросах
    Вы не можете прикреплять файлы к сообщениям
    Вы можете скачивать файлы