Ссылка на приватное зеркало нашего сайта всего за 1$. Внимание количество ограничено!!!

2 сезон

iTunes

1 сезон

1

2 сезон

2 сезон

iTunes

1 сезон

RePack

30

Ultimate

ВАЖНО

ИГРА 18+

pack

RePack

MK11
pack

Забери бонус

RePack

jed

!!Акция!!

Alien_Rage

RePack

fifa19

RePack

Assassins Creed: Odyssey

RePack

NEED FOR SPEED™ PAYBACK

4 сезон

9 сезон

Бесстыжие 9 сезон

Все сериалы

все сериалы на PB.wtf

RePack

FAR CRY 5
  

На месте принцессы: Новая жизнь / The Princess Switch: Switched Again (Майк Рол) [2020, мелодрама, комедия, семейный, WEB-DL 1080p] DUB [Пифагор / Netflix] piratbit.org

На месте принцессы: Новая жизнь через торрент piratbit.org

Раздают: 2 [ 107 KB/s ]
Размер: 3.3 GB | Добавлен: 5 д. назад | Торрент скачан:25 раз
Скачать  

21-11-2020 19:49 На месте принцессы: Новая жизнь Скачать торрент  

На месте принцессы: Новая жизнь | The Princess Switch: Switched Again
Год выпуска: 2020
Страна: США
Студия: Brad Krevoy Television, Netflix
Жанр: мелодрама, комедия, семейный
Продолжительность: 01:37:25
Перевод: Дублированный | Пифагор по заказу Netflix
Субтитры: русские (Forced, Full), английские(SDH), немецкие, финские, французские, польские, португальские, шведские

Режиссер: Майк Рол

rating

В ролях: Ванесса Энн Хадженс, Сэм Палладио, Ник Сагар, Сюанн Браун, Локлен Нибор, Марк Флайшманн, Флоренс Холл, Рики Норвуд, Адель Лаптон, Грант Крукс

Описание: Долгожданное продолжение фильма "На месте принцессы / The Princess Switch" 2018 года. Рождественская коронация усложняет личную жизнь Маргарет, и на помощь приходит ее двойник Стейси. Но что если третья копия нарушит их планы?

Качество: WEB-DL 1080p
Формат: MKV

Видео: AVC, 1920x1080 (16:9), 24 fps ~ 3830 Kbps
Аудио#1: AC3, 48 KHz, 6 ch ~ 448 Kb/s (русский)
Аудио#2: AC3, 48 KHz, 6 ch ~ 640 Kb/s (английский)
скриншот  скриншот  скриншот  скриншот  скриншот  

Общее
Уникальный идентификатор : 245988205705652639447782091970631651088 (0xB90F9AEA06C5ED7785C27F87182B4F10)
Полное имя : J:wotThe.Princess.Switch.Switched.Again.2020.WEB-DL.1080p-LQ.mkv
Формат : Matroska
Версия формата : Version 4
Размер файла : 3,30 Гбайт
Продолжительность : 1 ч. 37 м.
Режим общего битрейта : Переменный
Общий поток : 4 853 Кбит/сек
Дата кодирования : UTC 2020-11-20 06:13:01
Программа кодирования : mkvmerge v6.9.1 ('Blue Panther') 32bit built on Apr 18 2014 18:15:44
Библиотека кодирования : libebml v1.3.0 + libmatroska v1.4.1

Видео
Идентификатор : 1
Формат : AVC
Формат/Информация : Advanced Video Codec
Профиль формата : Main@L4
Настройки формата : CABAC / 3 Ref Frames
Параметр CABAC формата : Да
Параметр RefFrames формата : 3 кадра
Идентификатор кодека : V_MPEG4/ISO/AVC
Продолжительность : 1 ч. 37 м.
Вид битрейта : Переменный
Битрейт : 3 830 Кбит/сек
Максимальный битрейт : 5 745 Кбит/сек
Ширина : 1 920 пикселей
Высота : 1 080 пикселей
Соотношение сторон : 16:9
Режим частоты кадров : Постоянный
Частота кадров : 24,000 кадра/сек
Цветовое пространство : YUV
Субдискретизация насыщенности : 4:2:0
Битовая глубина : 8 бит
Тип развёртки : Прогрессивная
Бит/(Пиксели*Кадры) : 0.077
Размер потока : 2,50 Гбайт (76%)
Библиотека кодирования : x264 core 148 r2722 1b0121b
Настройки программы : cabac=1 / ref=3 / deblock=1:0:0 / analyse=0x1:0x111 / me=umh / subme=10 / psy=1 / psy_rd=1.00:0.00 / mixed_ref=1 / me_range=24 / chroma_me=1 / trellis=2 / 8x8dct=0 / cqm=0 / deadzone=21,11 / fast_pskip=1 / chroma_qp_offset=-2 / threads=8 / lookahead_threads=1 / sliced_threads=0 / nr=0 / decimate=1 / interlaced=0 / bluray_compat=0 / stitchable=1 / constrained_intra=0 / bframes=2 / b_pyramid=0 / b_adapt=2 / b_bias=0 / direct=3 / weightb=1 / open_gop=0 / weightp=2 / keyint=250 / keyint_min=24 / scenecut=0 / intra_refresh=0 / rc_lookahead=48 / rc=2pass / mbtree=1 / bitrate=3830 / ratetol=1.0 / qcomp=0.50 / qpmin=6 / qpmax=51 / qpstep=4 / cplxblur=20.0 / qblur=0.5 / vbv_maxrate=5745 / vbv_bufsize=7660 / nal_hrd=vbr / filler=0 / ip_ratio=1.40 / aq=1:1.00
Язык : English
Default : Да
Forced : Нет
Duration_Source : General_Duration

Аудио #1
Идентификатор : 2
Формат : AC-3
Формат/Информация : Audio Coding 3
Коммерческое название : Dolby Digital
Идентификатор кодека : A_AC3
Продолжительность : 1 ч. 37 м.
Вид битрейта : Постоянный
Битрейт : 448 Кбит/сек
Каналы : 6 каналов
Channel layout : L R C LFE Ls Rs
Частота : 48,0 КГц
Частота кадров : 31,250 кадров/сек (1536 SPF)
Метод сжатия : С потерями
Размер потока : 312 Мбайт (9%)
Заголовок : DUB - Пифагор
Язык : Russian
Service kind : Complete Main
Default : Да
Forced : Нет
Duration_Source : General_Duration

Аудио #2
Идентификатор : 3
Формат : AC-3
Формат/Информация : Audio Coding 3
Коммерческое название : Dolby Digital
Идентификатор кодека : A_AC3
Продолжительность : 1 ч. 37 м.
Вид битрейта : Постоянный
Битрейт : 640 Кбит/сек
Каналы : 6 каналов
Channel layout : L R C LFE Ls Rs
Частота : 48,0 КГц
Частота кадров : 31,250 кадров/сек (1536 SPF)
Метод сжатия : С потерями
Размер потока : 446 Мбайт (13%)
Заголовок : Оригинал
Язык : English
Service kind : Complete Main
Default : Нет
Forced : Нет
Duration_Source : General_Duration

Текст #1
Идентификатор : 4
Формат : UTF-8
Идентификатор кодека : S_TEXT/UTF8
Идентификатор кодека/Информация : UTF-8 Plain Text
Заголовок : Forced
Язык : Russian
Default : Да
Forced : Нет

Текст #2
Идентификатор : 5
Формат : UTF-8
Идентификатор кодека : S_TEXT/UTF8
Идентификатор кодека/Информация : UTF-8 Plain Text
Заголовок : Russian
Язык : Russian
Default : Нет
Forced : Нет

Текст #3
Идентификатор : 6
Формат : UTF-8
Идентификатор кодека : S_TEXT/UTF8
Идентификатор кодека/Информация : UTF-8 Plain Text
Заголовок : English (SDH)
Язык : English
Default : Нет
Forced : Нет

Текст #4
Идентификатор : 7
Формат : UTF-8
Идентификатор кодека : S_TEXT/UTF8
Идентификатор кодека/Информация : UTF-8 Plain Text
Заголовок : German
Язык : German
Default : Нет
Forced : Нет

Текст #5
Идентификатор : 8
Формат : UTF-8
Идентификатор кодека : S_TEXT/UTF8
Идентификатор кодека/Информация : UTF-8 Plain Text
Заголовок : European Spanish
Язык : Spanish
Default : Нет
Forced : Нет

Текст #6
Идентификатор : 9
Формат : UTF-8
Идентификатор кодека : S_TEXT/UTF8
Идентификатор кодека/Информация : UTF-8 Plain Text
Заголовок : Finnish
Язык : Finnish
Default : Нет
Forced : Нет

Текст #7
Идентификатор : 10
Формат : UTF-8
Идентификатор кодека : S_TEXT/UTF8
Идентификатор кодека/Информация : UTF-8 Plain Text
Заголовок : French
Язык : French
Default : Нет
Forced : Нет

Текст #8
Идентификатор : 11
Формат : UTF-8
Идентификатор кодека : S_TEXT/UTF8
Идентификатор кодека/Информация : UTF-8 Plain Text
Заголовок : Italian
Язык : Italian
Default : Нет
Forced : Нет

Текст #9
Идентификатор : 12
Формат : UTF-8
Идентификатор кодека : S_TEXT/UTF8
Идентификатор кодека/Информация : UTF-8 Plain Text
Заголовок : Polish
Язык : Polish
Default : Нет
Forced : Нет

Текст #10
Идентификатор : 13
Формат : UTF-8
Идентификатор кодека : S_TEXT/UTF8
Идентификатор кодека/Информация : UTF-8 Plain Text
Заголовок : Portuguese
Язык : Portuguese
Default : Нет
Forced : Нет

Текст #11
Идентификатор : 14
Формат : UTF-8
Идентификатор кодека : S_TEXT/UTF8
Идентификатор кодека/Информация : UTF-8 Plain Text
Заголовок : Swedish
Язык : Swedish
Default : Нет
Forced : Нет

Меню
00:00:00.000 : en:Глава 01
00:00:51.051 : en:Глава 02
00:20:56.130 : en:Глава 03
00:43:06.542 : en:Глава 04
01:08:02.954 : en:Глава 05
01:31:45.750 : en:Глава 06
01:51:45.574 : en:Глава 07
02:07:37.650 : en:Глава 08
02:28:57.762 : en:Глава 09

piratbit.org



Скачать На месте принцессы: Новая жизнь через торрент http://i114.fastpic.ru/big/2020/1121/3f/9bbbb374d62d85e52eb6489b8023613f.jpg Скачать фильм На месте принцессы: Новая жизнь через торрент бесплантно в хорошем качестве Описание: Долгожданное продолжение фильма "На месте принцессы / The Princess Switch" 2018 года. Рождественская коронация усложняет личную ... 10 10 2
Торрент: Зарегистрирован [2020-11-21 19:49] · скачан: 25 раз
Статус: √ проверено
Размер: 3.3 GB
Как cкачать? Как скачать На месте принцессы: Новая жизнь через торрент | qTorrent

% Раздел Тема Автор DL S | L
Фильмы 2019-2020 [DVDrip, WEB-DLRip, HDrip] (DUB, MVO) [ 1.46 GB ] На месте принцессы: Новая жизнь / The Princess Switch: Switched Again [2020 WEB-DLRip] - [Пифагор] Twi7ter Скачать
413 | 66
Фильмы 2019-2020 [DVDrip, WEB-DLRip, HDrip] (DUB, MVO) [ 1.46 GB ] На месте принцессы: Новая жизнь / The Princess Switch: Switched Again [2020 WEB-DLRip] killermax2013 Скачать
2 | 0

28-11-2019 20:33  

Отключить всю рекламу на сайте

    Дорогой пользователь! Огромная просьба, поблагодарите релизера, оцените раздачу и оставьте свои комментарий, если Вы скачали На месте принцессы: Новая жизнь через торрент бесплатно! Внесите свою лепту в развитие PiratBit!
    Комментировать посты могут только пользователи прошедшие не сложную регистрацию
    Показать сообщения:    

    На месте принцессы: Новая жизнь через торрент
    Скачать бесплатно На месте принцессы: Новая жизнь
    На месте принцессы: Новая жизнь скачать торрент
    На месте принцессы: Новая жизнь смотреть онлайн
    Cкачать фильм На месте принцессы: Новая жизнь бесплатно
    На месте принцессы: Новая жизнь скачать торрент в хорошем качестве
    На месте принцессы: Новая жизнь смотреть онлайн бесплатно в хорошем качестве


    Вы не можете начинать темы
    Вы не можете отвечать на сообщения
    Вы не можете редактировать свои сообщения
    Вы не можете удалять свои сообщения
    Вы не можете голосовать в опросах
    Вы не можете прикреплять файлы к сообщениям
    Вы можете скачивать файлы