Ссылка на приватное зеркало нашего сайта всего за 1$. Внимание количество ограничено!!!

2 сезон

iTunes

1 сезон

1

2 сезон

2 сезон

iTunes

1 сезон

RePack

30

Ultimate

ВАЖНО

ИГРА 18+

pack

RePack

MK11
pack

Забери бонус

RePack

jed

!!Акция!!

Alien_Rage

RePack

fifa19

RePack

Assassins Creed: Odyssey

RePack

NEED FOR SPEED™ PAYBACK

4 сезон

9 сезон

Бесстыжие 9 сезон

Все сериалы

все сериалы на PB.wtf

RePack

FAR CRY 5
  

Кошкин дом / Серии: 1-4 из 4 (Алексей Карелин) [2020, Детектив, мелодрама, HDTV 1080i] piratbit.org

Кошкин дом через торрент piratbit.org

Раздают: 2 [ 19 KB/s ]
Размер: 7.72 GB | Добавлен: 3 д. назад | Торрент скачан:12 раз
Скачать  

21-11-2020 22:26 Кошкин дом Скачать торрент  

Кошкин дом
Год выпуска: 2020
Страна: Россия
Студия: Кинокомпания "Приор Продакшн"
Жанр: Детектив, мелодрама
Продолжительность: ~ 00:49:21
Субтитры: отсутствуют

Режиссер: Алексей Карелин

В ролях: Ольга Филиппова, Дмитрий Лавров (III), Арсений Фогелев, Денис Синявский, Алексей Вакулов, Майя Вознесенская, Александра Каштанова, Андрей Карако, Иван Чиров, Екатерина Бушина

Описание: Надежда Кошкина руководит частным Кризисным Центром помощи женщинам, прозванным в народе «Кошкиным  Домом». Никто не знает, что в юности Надежда оставила свою дочь в доме малютки, чтобы спасти ее от родного отца – тирана Юдина, не раз поднимавшего на Кошкину руку. Страдая от потери дочери и ведя ее безуспешные поиски, Кошкина посвящает свою жизнь женщинам, оказавшимся в безвыходной ситуации. Среди ее подопечных оказывается Наталья Большова – известная телеведущая женского ток-шоу, которая по иронии судьбы сама стала жертвой домашнего насилия. В муже-мучителе Большовой Кошкина неожиданно узнает… Юдина. Понимая, что Кошкина знает о нем слишком много, он решает уничтожить и ее, и «Кошкин Дом». 

Качество: HDTV 1080i
Формат: TS

Видео: MPEG-4 AVC, ~ 5400 Кбит/с, 1920x1080, 25 кадр/с
Аудио: Русский (MP2, 2 ch, 192 Кбит/с)
скриншот  скриншот  скриншот  скриншот  

Общее
Идентификатор : 1 (0x1)
Полное имя : C:\Koshkin.dom.2020.HDTV.1080i\Koshkin.dom.01.2020.HDTV.1080i.ts
Формат : MPEG-TS
Размер файла : 1,97 Гбайт
Продолжительность : 48 м. 32 с.
Режим общего битрейта : Переменный
Общий поток : 5820 Кбит/сек

Видео
Идентификатор : 3321 (0xCF9)
Идентификатор меню : 1553 (0x611)
Формат : AVC
Формат/Информация : Advanced Video Codec
Профиль формата : High@L4.1
Настройки формата : CABAC / 2 Ref Frames
Параметр CABAC формата : Да
Параметр RefFrames формата : 2 кадра
Параметр GOP формата : M=4, N=25
Идентификатор кодека : 27
Продолжительность : 48 м. 32 с.
Вид битрейта : Постоянный
Битрейт : 5400 Кбит/сек
Ширина : 1920 пикселей
Высота : 1080 пикселей
Соотношение сторон : 16:9
Частота кадров : 25,000 кадров/сек
Стандарт вещания : PAL
Цветовое пространство : YUV
Субдискретизация насыщенности : 4:2:0
Битовая глубина : 8 бит
Тип развёртки : Чересстрочная
Метод сохранения типа развёртки : Раздельные поля
Порядок развёртки : Верхнее поле первое
Бит/(Пиксели*Кадры) : 0.104
Размер потока : 1,81 Гбайт (92%)
Цветовой диапазон : Limited
Основные цвета : BT.709
Характеристики трансфера : BT.709
Коэффициенты матрицы : BT.709

Аудио
Идентификатор : 3322 (0xCFA)
Идентификатор меню : 1553 (0x611)
Формат : MPEG Audio
Версия формата : Version 1
Профиль формата : Layer 2
Идентификатор кодека : 3
Продолжительность : 48 м. 32 с.
Вид битрейта : Постоянный
Битрейт : 192 Кбит/сек
Каналы : 2 канала
Частота : 48,0 КГц
Частота кадров : 41,667 кадра/сек (1152 SPF)
Метод сжатия : С потерями
Размер потока : 66,7 Мбайт (3%)
Язык : English

piratbit.org



Скачать Кошкин дом через торрент https://i114.fastpic.ru/big/2020/1121/11/8b7ca1d6e6d881434123663991002711.jpg Скачать фильм Кошкин дом через торрент бесплантно в хорошем качестве Описание: Надежда Кошкина руководит частным Кризисным Центром помощи женщинам, прозванным в народе «Кошкиным  Домом». Никто не знает, что в ... 10 10 2
Торрент: Зарегистрирован [2020-11-21 22:26] · скачан: 12 раз
Статус: √ проверено
Размер: 7.72 GB
Как cкачать? Как скачать Кошкин дом через торрент | qTorrent

% Раздел Тема Автор DL S | L
Наши сериалы [ 2.43 GB ] Кошкин дом / Серии: 1-4 из 4 [2020 WEB-DLRip] GEKADOL Скачать
2 | 0
Наши сериалы [ 2.42 GB ] Кошкин дом / Серии: 1-4 из 4 [2020 WEB-DLRip-AVC] bober100 Скачать
4 | 0

28-11-2019 20:33  

Отключить всю рекламу на сайте

    Дорогой пользователь! Огромная просьба, поблагодарите релизера, оцените раздачу и оставьте свои комментарий, если Вы скачали Кошкин дом через торрент бесплатно! Внесите свою лепту в развитие PiratBit!
    Комментировать посты могут только пользователи прошедшие не сложную регистрацию
    Показать сообщения:    

    Кошкин дом через торрент
    Скачать бесплатно Кошкин дом
    Кошкин дом скачать торрент
    Кошкин дом смотреть онлайн
    Cкачать фильм Кошкин дом бесплатно
    Кошкин дом скачать торрент в хорошем качестве
    Кошкин дом смотреть онлайн бесплатно в хорошем качестве


    Вы не можете начинать темы
    Вы не можете отвечать на сообщения
    Вы не можете редактировать свои сообщения
    Вы не можете удалять свои сообщения
    Вы не можете голосовать в опросах
    Вы не можете прикреплять файлы к сообщениям
    Вы можете скачивать файлы