Ссылка на приватное зеркало нашего сайта всего за 1$. Внимание количество ограничено!!!

2 сезон

iTunes

1 сезон

1

2 сезон

2 сезон

iTunes

1 сезон

RePack

30

Ultimate

ВАЖНО

ИГРА 18+

pack

RePack

MK11
pack

Забери бонус

RePack

jed

!!Акция!!

Alien_Rage

RePack

fifa19

RePack

Assassins Creed: Odyssey

RePack

NEED FOR SPEED™ PAYBACK

4 сезон

9 сезон

Бесстыжие 9 сезон

Все сериалы

все сериалы на PB.wtf

RePack

FAR CRY 5
  

Крупный куш / Fat Chance (Мика Каронна) [2016, Комедия, мелодрама, WEB-DL 1080p] MVO [Официальный звук] piratbit.org

Крупный куш через торрент piratbit.org

Раздают: 1 [ 0 KB/s ]
Размер: 3.02 GB | Добавлен: 13 д. назад | Торрент скачан:30 раз
Скачать  

22-11-2020 02:40 Крупный куш Скачать торрент  

Крупный куш | Fat Chance
Год выпуска: 2016
Страна: США
Студия: Living Word Films
Жанр: Комедия, мелодрама
Продолжительность: 01:15:46
Перевод: Профессиональный (многоголосый) | Официальный звук
Субтитры: Английские

Режиссер: Мика Каронна

rating


В ролях: Сара ЛеДжун, Виктория Джексон, Джуда Дункан, Амарис Кирби, Уэсли Элдер, Лорен Джаски, Элиша МакНамара, Бритни МакНил, Джордан Крим, Джуд Стибер, Грейсон Уорнер, Калеб Башам, Леа Обри Башам, Джулиан Симоэс

Описание: Главную героиню зовут Элиссон. Она работает ассистентом стоматолога. Будучи полненькой, Элиссон очень не уверена в себе и считает, что недостойна настоящей любви. Друзья, которые искренне переживают за девушку, советуют ей зарегистрироваться на сайте знакомств, где легче встретить свою половнику. Однако, стесняясь своей внешности, Элиссон публикует фото худенькой подруги. На сайте она знакомится, а потом влюбляется в Джастина. Позже она узнаёт, что это тот же самый парень, с которым она подружилась в летнем лагере, где они оба работают вожатыми. Джастин не подозревает об обмане, хотя Элиссон никогда не общается с ним в видеочате и вообще не стремится раскрыть свою личность, опасаясь, что потеряет эти романтические отношения, которые у неё возникли в онлайн-общении с Джастином. Лучшая подруга Элиссон Кейт настойчиво советует рассказать правду Джастину, ведь, по словам Кейт, героиня просто не понимает, насколько она прекрасна.

Качество: WEB-DL 1080p
Формат: MKV

Видео: MPEG-4 AVC, ~ 5170 Кбит/с, 1920x800
Аудио#1: Русский (AC3, 2 ch, 192 Кбит/с)
Аудио#2: английский (E-AC3, 2 ch, 224 Кбит/c)
скриншот  скриншот  скриншот  скриншот  

Общее
Уникальный идентификатор : 251655523342030734290381638080106817092 (0xBD53173F28CDBCAFABA154B5518F6644)
Полное имя : C:\Fat.Chance.2016.WEB-DL.1080p.ExKinoRay.mkv
Формат : Matroska
Версия формата : Version 2
Размер файла : 3,02 Гбайт
Продолжительность : 1 ч. 15 м.
Общий поток : 5699 Кбит/сек
Дата кодирования : UTC 2020-11-21 23:09:54
Программа кодирования : mkvmerge v5.8.0 ('No Sleep / Pillow') built on Sep 2 2012 15:37:04
Библиотека кодирования : libebml v1.2.3 + libmatroska v1.3.0

Видео
Идентификатор : 1
Формат : AVC
Формат/Информация : Advanced Video Codec
Профиль формата : High@L4
Настройки формата : CABAC / 5 Ref Frames
Параметр CABAC формата : Да
Параметр RefFrames формата : 5 кадров
Идентификатор кодека : V_MPEG4/ISO/AVC
Продолжительность : 1 ч. 15 м.
Битрейт : 5170 Кбит/сек
Ширина : 1920 пикселей
Высота : 800 пикселей
Соотношение сторон : 2,40:1
Режим частоты кадров : Постоянный
Частота кадров : 23,976 (24000/1001) кадра/сек
Цветовое пространство : YUV
Субдискретизация насыщенности : 4:2:0
Битовая глубина : 8 бит
Тип развёртки : Прогрессивная
Бит/(Пиксели*Кадры) : 0.140
Размер потока : 2,74 Гбайт (91%)
Язык : English
Default : Да
Forced : Нет

Аудио #1
Идентификатор : 2
Формат : AC-3
Формат/Информация : Audio Coding 3
Коммерческое название : Dolby Digital
Идентификатор кодека : A_AC3
Продолжительность : 1 ч. 15 м.
Вид битрейта : Постоянный
Битрейт : 192 Кбит/сек
Каналы : 2 канала
ChannelLayout : L R
Частота : 48,0 КГц
Частота кадров : 31,250 кадров/сек (1536 SPF)
Битовая глубина : 16 бит
Метод сжатия : С потерями
Размер потока : 104 Мбайт (3%)
Язык : Russian
ServiceKind/String : Complete Main
Default : Да
Forced : Нет

Аудио #2
Идентификатор : 3
Формат : E-AC-3
Формат/Информация : Enhanced AC-3
Коммерческое название : Dolby Digital Plus
Идентификатор кодека : A_EAC3
Продолжительность : 1 ч. 15 м.
Вид битрейта : Постоянный
Битрейт : 224 Кбит/сек
Каналы : 2 канала
ChannelLayout : L R
Частота : 48,0 КГц
Частота кадров : 31,250 кадров/сек (1536 SPF)
Метод сжатия : С потерями
Размер потока : 121 Мбайт (4%)
Язык : English
ServiceKind/String : Complete Main
Default : Нет
Forced : Нет

Текст
Идентификатор : 4
Формат : UTF-8
Идентификатор кодека : S_TEXT/UTF8
Идентификатор кодека/Информация : UTF-8 Plain Text
Язык : English
Default : Нет
Forced : Нет

piratbit.org



Скачать Крупный куш через торрент https://b.radikal.ru/b13/2011/3c/0f26320d2c22.jpg Скачать фильм Крупный куш через торрент бесплантно в хорошем качестве Описание: Главную героиню зовут Элиссон. Она работает ассистентом стоматолога. Будучи полненькой, Элиссон очень не уверена в себе и ... 10 10 2
Торрент: Зарегистрирован [2020-11-22 02:40] · скачан: 30 раз
Статус: T временная
Размер: 3.02 GB
Как cкачать? Как скачать Крупный куш через торрент | qTorrent

% Раздел Тема Автор DL S | L
T Фильмы 2016 [DVDrip, WEB-DLRip, HDrip] (DUB, MVO) [ 1.09 GB ] Крупный куш / Fat Chance [2016 WEB-DLRip] MVO [Официальный звук] bober100 Скачать
2 | 0

28-11-2019 20:33  

Отключить всю рекламу на сайте

    Дорогой пользователь! Огромная просьба, поблагодарите релизера, оцените раздачу и оставьте свои комментарий, если Вы скачали Крупный куш через торрент бесплатно! Внесите свою лепту в развитие PiratBit!
    Комментировать посты могут только пользователи прошедшие не сложную регистрацию
    Показать сообщения:    

    Крупный куш через торрент
    Скачать бесплатно Крупный куш
    Крупный куш скачать торрент
    Крупный куш смотреть онлайн
    Cкачать фильм Крупный куш бесплатно
    Крупный куш скачать торрент в хорошем качестве
    Крупный куш смотреть онлайн бесплатно в хорошем качестве


    Вы не можете начинать темы
    Вы не можете отвечать на сообщения
    Вы не можете редактировать свои сообщения
    Вы не можете удалять свои сообщения
    Вы не можете голосовать в опросах
    Вы не можете прикреплять файлы к сообщениям
    Вы можете скачивать файлы