2 сезон

iTunes

WEBRip

1

2 сезон

iTunes

1 сезон

1 сезон

RePack

30

Ultimate

ВАЖНО

ИГРА 18+

pack

RePack

MK11
pack

Легкие деньги

RePack

jed

RePack

fifa19

RePack

RDR2

RePack

NEED FOR SPEED™ PAYBACK

4 сезон

9 сезон

Бесстыжие 9 сезон

Все сериалы

все сериалы на PB.wtf

RePack

FAR CRY 5

Anonymous, добрый вечер, мы не успеваем собрать деньги на оплату серверов за февраль, помогите нам пожалуйста в это трудное время. В качестве благодарности мы отключим Вам всю рекламу на сайте (укажите свой ник в строку Ваше имя)!

×
  
Magnet ссылка

Довод / Tenet (Кристофер Нолан) [2020, фантастика, боевик, WEB-DL 1080p] [Ukr DUB] [Line] piratbit.org

Довод через торрент piratbit.org

Раздают: 3 [ 0 KB/s ]
Размер: 4.43 GB | Добавлен: 3 мес. 7 д. назад | Торрент скачан:127 раз
Скачать  

25-11-2020 18:58 Довод Скачать торрент  

Довод / Тенет / Tenet

Год выпуска: 2020
Страна: Великобритания, США
Жанр: фантастика, боевик
Продолжительность: 02:29:48
Перевод: Украинский (дублированный) [Line]

Режиссер: Кристофер Нолан

В ролях: Джон Дэвид Вашингтон, Роберт Паттинсон, Элизабет Дебики, Кеннет Брана, Аарон Тейлор-Джонсон, Клеманс Поэзи, Фиона Дуриф, Майкл Кейн, Химеш Патель, Эндрю Ховард, Уэс Чэтэм

Описание: После теракта в киевском оперном театре агент ЦРУ объединяется с британской разведкой, чтобы противостоять русскому олигарху, который сколотил состояние на торговле оружием. Для этого агенты используют инверсию времени, заставляющую уже произошедшие события идти вспять.

rating

скриншот  

Качество: WEB-DL 1080p
Формат: MKV
Видео: MPEG4, XviD, 1920x872, 23,976 fps, 3 600 kb/s
Аудио 1: AC3, 48.0 kHz, 2 ch, 256 kb/s | [DUB - Line] UKR
Аудио 2: AC3, 48.0 kHz, 6 ch, 384 kb/s | ENG
Субтитры: английские
General
Unique ID : 29231496957212383246958973440872091470 (0x15FDC81268FCE75E5A41BA1903AF0F4E)
Complete name : /Volumes/Download/Movies/Tenet.2020.1080p.HDRip.[Ukr.Eng].mkv
Format : Matroska
Format version : Version 4
File size : 4.43 GiB
Duration : 2 h 29 min
Overall bit rate : 4 231 kb/s
Movie name : Tenet.2020.1080p.HDRip.[Ukr.Eng]
Encoded date : UTC 2020-11-28 11:14:38
Writing application : mkvmerge v47.0.0 ('Black Flag') 64-bit
Writing library : libebml v1.3.10 + libmatroska v1.5.2

Video
ID : 1
Format : AVC
Format/Info : Advanced Video Codec
Format profile : High@L4.1
Format settings : CABAC / 4 Ref Frames
Format settings, CABAC : Yes
Format settings, Reference frames : 4 frames
Codec ID : V_MPEG4/ISO/AVC
Duration : 2 h 29 min
Bit rate : 3 600 kb/s
Width : 1 920 pixels
Height : 872 pixels
Display aspect ratio : 2.2:1
Frame rate mode : Constant
Frame rate : 23.976 (24000/1001) FPS
Color space : YUV
Chroma subsampling : 4:2:0
Bit depth : 8 bits
Scan type : Progressive
Bits/(Pixel*Frame) : 0.090
Stream size : 3.76 GiB (85%)
Title : Tenet.2020.1080p.HDRip.[Ukr.Eng]
Writing library : x264 core 142 r2479 dd79a61
Encoding settings : cabac=1 / ref=3 / deblock=1:0:0 / analyse=0x3:0x113 / me=hex / subme=7 / psy=1 / psy_rd=1.00:0.00 / mixed_ref=1 / me_range=16 / chroma_me=1 / trellis=1 / 8x8dct=1 / cqm=0 / deadzone=21,11 / fast_pskip=1 / chroma_qp_offset=-2 / threads=24 / lookahead_threads=4 / sliced_threads=0 / nr=0 / decimate=1 / interlaced=0 / bluray_compat=0 / constrained_intra=0 / bframes=3 / b_pyramid=2 / b_adapt=1 / b_bias=0 / direct=1 / weightb=1 / open_gop=0 / weightp=2 / keyint=240 / keyint_min=24 / scenecut=40 / intra_refresh=0 / rc_lookahead=40 / rc=abr / mbtree=1 / bitrate=3600 / ratetol=1.0 / qcomp=0.60 / qpmin=0 / qpmax=69 / qpstep=4 / vbv_maxrate=62500 / vbv_bufsize=78125 / nal_hrd=none / filler=0 / ip_ratio=1.40 / aq=1:1.00
Default : Yes
Forced : No
Color range : Limited
Color primaries : BT.709
Transfer characteristics : BT.709
Matrix coefficients : BT.709

Audio #1
ID : 2
Format : AC-3
Format/Info : Audio Coding 3
Commercial name : Dolby Digital
Codec ID : A_AC3
Duration : 2 h 29 min
Bit rate mode : Constant
Bit rate : 256 kb/s
Channel(s) : 2 channels
Channel layout : L R
Sampling rate : 48.0 kHz
Frame rate : 31.250 FPS (1536 SPF)
Compression mode : Lossy
Delay relative to video : -52 ms
Stream size : 274 MiB (6%)
Title : Ukrainian
Language : Ukrainian
Service kind : Complete Main
Default : Yes
Forced : No

Audio #2
ID : 3
Format : AC-3
Format/Info : Audio Coding 3
Commercial name : Dolby Digital
Codec ID : A_AC3
Duration : 2 h 29 min
Bit rate mode : Constant
Bit rate : 384 kb/s
Channel(s) : 6 channels
Channel layout : L R C LFE Ls Rs
Sampling rate : 48.0 kHz
Frame rate : 31.250 FPS (1536 SPF)
Compression mode : Lossy
Delay relative to video : -5 ms
Stream size : 411 MiB (9%)
Title : English
Language : English
Service kind : Complete Main
Default : No
Forced : No

Text
ID : 4
Format : UTF-8
Codec ID : S_TEXT/UTF8
Codec ID/Info : UTF-8 Plain Text
Duration : 2 h 22 min
Bit rate : 52 b/s
Count of elements : 1840
Stream size : 55.4 KiB (0%)
Title : English
Language : English
Default : No
Forced : No
скриншот   скриншот   скриншот  

piratbit.org



Скачать Довод через торрент https://i3.imageban.ru/out/2020/11/23/bdb4e3be27441f4002324ca23e0d3e33.jpg Скачать фильм Довод через торрент бесплантно в хорошем качестве Описание: После теракта в киевском оперном театре агент ЦРУ объединяется с британской разведкой, чтобы противостоять русскому олигарху, ... 10 10 9
Торрент: Зарегистрирован [2020-11-28 11:42] · скачан: 127 раз
Статус: √ проверено
Размер: 4.43 GB
Как cкачать? Как скачать Довод через торрент | UTorrent

% Раздел Тема Автор DL S | L
Ultra HD (UHD: 2K, 4K, 8K) — видео сверхвысокой чёткости [ 65.1 GB ] Довод / Tenet [2020 UHD BDRemux 2160p ] DUB bober100 Скачать
12 | 1
Фильмы (HD 720p, 1080p) (48-60 fps) [ 6.9 GB ] Довод / Tenet [2020 сюрреализм BDRip 720p / 60 FPS DUB ] от R.G. HD-Films slaventi-69 Скачать
16 | 0
Фильмы 2019-2020 [DVDrip, WEB-DLRip, HDrip] (DUB, MVO) [ 2.06 GB ] Довод / Tenet [2020 сюрреализм HDRip-AVC] [IMAX] от MediaBit Lithuania Скачать
37 | 0
Фильмы [HD 720p, 1080p] (Хороший звук DUB, MVO) [ 8.62 GB ] Довод / Tenet [2020 BDRip 720p ] DUB bober100 Скачать
28 | 0
Фильмы 2019-2020 [DVDrip, WEB-DLRip, HDrip] (DUB, MVO) [ 1.46 GB ] Довод / Tenet [2020 BDRip] - Twi7ter Скачать
240 | 3
Фильмы с авторской озвучкой [ 2.17 GB ] Довод / Tenet [2020 BDRip] [IMAX Edition] [AVO] killermax2013 Скачать
5 | 0
Фильмы [HD 720p, 1080p] (Хороший звук DUB, MVO) [ 19.79 GB ] Довод / Tenet [2020 BDRip 1080p ] DUB bober100 Скачать
30 | 1


Последний раз редактировалось: killermax2013 (2020-11-28 11:42), всего редактировалось 2 раз(а)

28-11-2019 20:33  

Отключить всю рекламу на сайте

    Дорогой пользователь! Огромная просьба, поблагодарите релизера, оцените раздачу и оставьте свои комментарий, если Вы скачали Довод через торрент бесплатно! Внесите свою лепту в развитие PiratBit!
    Комментировать посты могут только пользователи прошедшие не сложную регистрацию
    Показать сообщения:    

    Довод через торрент
    Скачать бесплатно Довод
    Довод скачать торрент
    Довод смотреть онлайн
    Cкачать фильм Довод бесплатно
    Довод скачать торрент в хорошем качестве
    Довод смотреть онлайн бесплатно в хорошем качестве


    Вы не можете начинать темы
    Вы не можете отвечать на сообщения
    Вы не можете редактировать свои сообщения
    Вы не можете удалять свои сообщения
    Вы не можете голосовать в опросах
    Вы не можете прикреплять файлы к сообщениям
    Вы можете скачивать файлы