Достать ножи: Стеклянная луковица

MVO

Добыча

Дубляж

Уэнсдэй

1 сезон

Тор

Дубляж

13 клиническая

1 сезон

Жестокая ночь

MVO

Одни из нас

1 сезон

Deluxe

pack

Рекомендуем

30

Пиратка

ВАЖНО

ВАЖНО

Ghostwire

Пиратка

jed

RePack

nioh2

RePack

RDR2

RePack

NEED FOR SPEED™ PAYBACK

RePack

скачать торрент

Кинопоиск HD

Острые козырьки 6 сезон

6 сезон

FAR CRY 6

RePack

скачать торрент

Лицензия

скачать торрент

MVO

1

1 сезон

скачать торрент

1 сезон

скачать торрент

Лицензия

  

Король Нью-Йорка / King of New York (Абель Феррара) [1990, Криминал, триллер, UHD BDRemux 2160p, (Dolby Vision TV)] MVO [Cinema Prestige]

Король Нью-Йорка через торрент piratbit.org

Размер: 68.51 GB | Добавлен: 2 года 2 мес. назад | Торрент скачан:14 раз
Смотреть онлайн | Скачать | Поддержите нас   

27-11-2020 06:42 Король Нью-Йорка Скачать торрент  

Король Нью-Йорка | King of New York
Год выпуска: 1990
Страна: Италия, Великобритания
Жанр: Криминал, триллер
Продолжительность: 01:43:09
Перевод: Профессиональный многоголосый | Cinema Prestige
Субтитры: отсутствуют

Режиссер: Абель Феррара

rating

В ролях: Кристофер Уокен, Дэвид Карузо, Стив Бушеми, Лоуренс Фишборн, Виктор Арго, Уэсли Снайпс, Джанет Джулиан, Джои Чин, Джанкарло Эспозито, Пол Кэлдерон, Тереза Рэндл, Леонард Л. Томас, Роджер Гуэнвёр Смит, Кэрри Нюгрен, Эрнест Абуба

Описание: Выйдя из тюрьмы, гангстер Фрэнк Уайт объявляет, что берёт под свой контроль всю торговлю наркотиками в Нью-Йорке и уничтожит всех, кто встанет на его пути. Нью-Йорк становится ареной кровавых разборок за рынок сбыта наркотиков стоимостью более чем в миллиард долларов. Фрэнк и его банда, состоящая, в основном, из чёрных, методично уничтожает боссов колумбийских, итальянских и китайских группировок. В своей штаб-квартире в роскошных апартаментах отеля "Плаза" под защитой двух прелестных телохранительниц Фрэнк провозглашает себя королём Нью-Йорка. Полиция, неспособная справиться с Фрэнком, объявляет ему настоящую войну...

Качество: UHD BDRemux 2160p | Dolby Vision TV
Формат: MP4

Видео: 3840x2160 at 23.976 fps, MPEG-H HEVC HDR, Dolby Vision Video, 94608 kbps avg
Аудио: 48 kHz, AC3, 5.1, 384 Kbps | Профессиональный многоголосый | Cinema Prestige | RUS |
Данный вид релизов (контейнер MP4) предназначен для встроенного в ТВ (соответственно, с поддержкой DV) плеер.
Т.Е. Можно использовать как USB flash/HDD, так и DLNA / Plex - подобные сервисы/программы. дополнительный-внешний плеер не обязателен.

Внимание!
На моделях LG 2016 возможны сюрпризы "через раз", 2017-2018 должно идти без сюрпризов )
скриншот  скриншот  скриншот  скриншот  скриншот  

General
Complete name : E:VideoHDDKing.of.New.York.1990.BDREMUX.2160p.HDR.DV_TV.seleZen.mp4
Format : MPEG-4
Format profile : Base Media / Version 2
Codec ID : mp42 (mp42/dby1/isom)
File size : 68.5 GiB
Duration : 1 h 43 min
Overall bit rate : 95.1 Mb/s
Encoded date : UTC 2020-11-27 03:14:11
Tagged date : UTC 2020-11-27 03:14:11

Video #1
ID : 1
Format : HEVC
Format/Info : High Efficiency Video Coding
Format profile : Main 10@L5.1@High
HDR format : SMPTE ST 2086, HDR10 compatible
Codec ID : hev1
Codec ID/Info : High Efficiency Video Coding
Duration : 1 h 43 min
Bit rate : 94.6 Mb/s
Width : 3 840 pixels
Height : 2 160 pixels
Display aspect ratio : 16:9
Frame rate mode : Constant
Frame rate : 23.976 (24000/1001) FPS
Color space : YUV
Chroma subsampling : 4:2:0 (Type 2)
Bit depth : 10 bits
Bits/(Pixel*Frame) : 0.476
Stream size : 68.2 GiB (100%)
Default : No
Encoded date : UTC 2020-11-27 03:14:11
Tagged date : UTC 2020-11-27 03:14:11
Color range : Limited
Color primaries : BT.2020
Transfer characteristics : PQ
Matrix coefficients : BT.2020 non-constant
Mastering display color pri : BT.2020
Mastering display luminance : min: 0.0001 cd/m2, max: 1000 cd/m2
Codec configuration box : hvcC

Video #2
ID : 2
Format : HEVC
Format/Info : High Efficiency Video Coding
Format profile : Main 10@L5.1@High
HDR format : Dolby Vision, Version 1.0, dvhe.07.06, EL+RPU, Blu-ray compatible / SMPTE ST 2086, HDR10 compatible
Codec ID : dvhe
Codec ID/Info : High Efficiency Video Coding with Dolby Vision
Duration : 1 h 43 min
Bit rate : 75.1 kb/s
Width : 1 920 pixels
Height : 1 080 pixels
Display aspect ratio : 16:9
Frame rate mode : Constant
Frame rate : 23.976 (24000/1001) FPS
Color space : YUV
Chroma subsampling : 4:2:0 (Type 2)
Bit depth : 10 bits
Bits/(Pixel*Frame) : 0.002
Stream size : 55.4 MiB (0%)
Default : No
Encoded date : UTC 2020-11-27 03:14:11
Tagged date : UTC 2020-11-27 03:14:11
Color range : Limited
Color primaries : BT.2020
Transfer characteristics : PQ
Matrix coefficients : BT.2020 non-constant
Mastering display color pri : BT.2020
Mastering display luminance : min: 0.0001 cd/m2, max: 1000 cd/m2
Codec configuration box : hvcC+dvcC

Audio
ID : 3
Format : AC-3
Format/Info : Audio Coding 3
Commercial name : Dolby Digital
Codec ID : ac-3
Duration : 1 h 43 min
Bit rate mode : Constant
Bit rate : 384 kb/s
Channel(s) : 6 channels
Channel layout : L R C LFE Ls Rs
Sampling rate : 48.0 kHz
Frame rate : 31.250 FPS (1536 SPF)
Compression mode : Lossy
Stream size : 283 MiB (0%)
Language : Russian
Service kind : Complete Main
Default : No
Encoded date : UTC 2020-11-27 03:14:11
Tagged date : UTC 2020-11-27 03:14:11




Скачать Король Нью-Йорка через торрент https://st-kp-yandex-net.translate.goog/images/film_iphone/iphone360_3743.jpg Скачать, смотреть онлайн Король Нью-Йорка бесплантно в хорошем качестве Описание: Выйдя из тюрьмы, гангстер Фрэнк Уайт объявляет, что берёт под свой контроль всю торговлю наркотиками в Нью-Йорке и уничтожит ... 7.8 10 4
Торрент: Зарегистрирован [2020-11-27 06:42] · скачан: 14 раз
Статус: √ проверено
Размер: 68.51 GB
Как cкачать? Как скачать Король Нью-Йорка через торрент | UTorrent

% Раздел Тема Автор DL S | L
Ultra HD (UHD: 2K, 4K, 8K) [ 86.1 GB ] Король Нью-Йорка / King of New York | MVO+DVO+3xAVO | 2160p, (Dolby Vision bober100 Скачать
2 | 0
Ultra HD (UHD: 2K, 4K, 8K) [ 81.64 GB ] Король Нью-Йорка / King of New York | MVO+DVO+3xAVO | 2160p bober100 Скачать
1 | 0
Фильмы [HD 720p, 1080p] (Хороший звук DUB, MVO) [ 18.64 GB ] Король Нью-Йорка / King of New York | MVO | 1080p msltel Скачать
1 | 0
Фильмы [HD 720p, 1080p] (Хороший звук DUB, MVO) [ 7.59 GB ] Король Нью-Йорка / King of New York | MVO | 720p msltel Скачать
1 | 0
Фильмы [HD 720p, 1080p] (Хороший звук DUB, MVO) [ 21 GB ] Король Нью-Йорка / King of New York | MVO | 1080p, MVO, DVO, AVO кэп Скачать
1 | 0

28-11-2019 20:33  


Отключить вcю реклaмy на сайте, в т.ч. и в плеере онлайн просмотра!

    Дорогой пользователь! Огромная просьба, поблагодарите релизера, оцените раздачу и оставьте свои комментарий, если Вы скачали Король Нью-Йорка через торрент бесплатно!!
    Комментировать посты могут только пользователи прошедшие не сложную регистрацию
    Показать сообщения:    


    Король Нью-Йорка через торрент
    Скачать бесплатно Король Нью-Йорка
    Король Нью-Йорка скачать торрент
    Король Нью-Йорка смотреть онлайн
    Cкачать фильм Король Нью-Йорка бесплатно
    Король Нью-Йорка скачать торрент в хорошем качестве
    Король Нью-Йорка смотреть онлайн бесплатно в хорошем качестве
    Вы не можете начинать темы
    Вы не можете отвечать на сообщения
    Вы не можете редактировать свои сообщения
    Вы не можете удалять свои сообщения
    Вы не можете голосовать в опросах
    Вы не можете прикреплять файлы к сообщениям
    Вы можете скачивать файлы
    Король Нью-Йорка / King of New York [1990, Криминал, триллер, UHD BDRemux 2160p, ] MVO [Cinema Prestige] смотреть онлайн, скачать торрент picoco.icu