Достать ножи: Стеклянная луковица

MVO

Добыча

Дубляж

Уэнсдэй

1 сезон

Тор

Дубляж

13 клиническая

1 сезон

Жестокая ночь

MVO

Одни из нас

1 сезон

Deluxe

pack

Рекомендуем

30

Пиратка

ВАЖНО

ВАЖНО

Ghostwire

Пиратка

jed

RePack

nioh2

RePack

RDR2

RePack

NEED FOR SPEED™ PAYBACK

RePack

скачать торрент

Кинопоиск HD

Острые козырьки 6 сезон

6 сезон

FAR CRY 6

RePack

скачать торрент

Лицензия

скачать торрент

MVO

1

1 сезон

скачать торрент

1 сезон

скачать торрент

Лицензия

  

Властелин колец: Братство кольца / The Lord of the Rings: The Fellowship of the Ring (Питер Джексон) [2001, фэнтези, приключения, драма, UHD BDRemux 2160p] (4K, HDR) [Дубляж+MVO+AVO] Расширенная версия

Властелин колец: Братство кольца через торрент piratbit.org

Размер: 131.17 GB | Добавлен: 2 года 2 мес. назад | Торрент скачан:182 раза
Смотреть онлайн | Скачать | Поддержите нас   

30-11-2020 11:05 Властелин колец: Братство кольца Скачать торрент  

Властелин колец: Братство кольца / The Lord of the Rings: The Fellowship of the Ring

Год выхода: 2001
Жанр: Фэнтези, боевик, приключения, экранизация
Страна: США, Новая Зеландия
Студия: New Line Cinema, The Saul Zaentz Company, WingNut Films
Продолжительность: 03:48:18
Перевод(ы):
#1: Дублированный | Дублированный + Позитив
#2: Профессиональный многоголосый | Позитив ММ
#2: Профессиональный многоголосый | Киномания/Супербит-СРИ
#2: Авторский | А.Гаврилов
#2: Авторский | С.Рябов
Субтитры: Русские (Forced, full), английские

Режиссер: Питер Джексон

В ролях: Элайджа Вуд, Шон Эстин, Иэн МакКеллен, Орландо Блум, Лив Тайлер, Вигго Мортенсен, Шон Бин, Кейт Бланшетт, Джон Рис-Дэвис, Бернард Хилл, Кристофер Ли, Билли Бойд, Доминик Монаган, Хьюго Уивинг, Сала Бэйкер, Мартон Чокаш, Меган Эдвардс, Майкл Элсворт, Лоуренс Макор, Питер МакКензи, Сара МакЛеод, Йен Мун, Крэйг Паркер, Энди Серкис, Гарри Синклер, Дэвид Уитерлей, Питер Корригэн, Лори Дунги, Норман Форси, Брайан Серджент, Тимоти Бартлетт, Питер Джексон, Шэйн Ранги

rating

Описание: Сказания о Средиземье — это хроника Великой войны за Кольцо, войны, длившейся не одну тысячу лет. Тот, кто владел Кольцом, получал Влacть над всеми живыми тварями, но был обязан служить злу. Тихая деревня, где живут хоббиты. Волшебник Гэндальф, придя на 111-й день рождения к своему старому другу Бильбо Бэггинсу, начинает вести разговор о кольце, которое Бильбо нашел много лет назад. Это кольцо принадлежало когда-то темному властителю Средиземья Саурону, и оно дает большую Влacть своему обладателю. Теперь Саурон хочет вернуть себе Влacть над Средиземьем. Бильбо отдает найденное кольцо своему племяннику Фродо, который пытается научиться справляться с тем страшным могуществом, которое дает ему кольцо…

Качество: BDRemux 2160p
Формат:MKV
Видео: 3840x2160 at 23.976 fps, MPEG-H HEVC HDR Video, 67900 kbps avg
Аудио #01: 48 kHz, AC3, 5.1, 448 Kbps | Дублированный + Позитив | RUS |
Аудио #02: 48 kHz, DTS-ES, 7.1, 2259 Kbps | Профессиональный многоголосый | Позитив ММ | RUS |
Аудио #03: 48 kHz, DTS-ES, 7.1, 4767 Kbps | Профессиональный многоголосый | Киномания/Супербит-СРИ | RUS |
Аудио #04: 48 kHz, DTS-ES, 5.1, 1510 Kbps | Авторский | А.Гаврилов | RUS |
Аудио #05: 48 kHz, DTS-ES, 5.1, 1510 Kbps | Авторский | С.Рябов | RUS |
Аудио #06: 48 kHz, TrueHD, 7.1, 2994 Kbps | Оригинал | ENG |
Аудио #07: 48 kHz, AC3, 5.1, 448 Kbps | Оригинал | ENG |
General
Unique ID : 331367284035139971204948815348840486158 (0xF94B047A503C30836CAD7D7450A3550E)
Complete name : E:VideoHDDThe.Lord.of.the.Rings.The.Fellowship.of.the.Ring.2001.BDREMUX.2160p.HDR.seleZen.mkv
Format : Matroska
Format version : Version 4
File size : 131 GiB
Duration : 3 h 48 min
Overall bit rate mode : Variable
Overall bit rate : 82.3 Mb/s
Movie name : The.Lord.of.the.Rings.The.Fellowship.of.the.Ring.2001 from seleZen
Encoded date : UTC 2020-11-30 08:11:20
Writing application : mkvmerge v40.0.0 ('Old Town Road + Pony') 64-bit
Writing library : libebml v1.3.9 + libmatroska v1.5.2
Cover : Yes
Attachments : cover / anicb___.ttf / anicm___.ttf / Ringbearer.ttf

Video
ID : 1
Format : HEVC
Format/Info : High Efficiency Video Coding
Format profile : Main 10@L5.1@High
HDR format : SMPTE ST 2086, HDR10 compatible
Codec ID : V_MPEGH/ISO/HEVC
Duration : 3 h 48 min
Bit rate : 67.9 Mb/s
Width : 3 840 pixels
Height : 2 160 pixels
Display aspect ratio : 16:9
Frame rate mode : Constant
Frame rate : 23.976 (23976/1000) FPS
Original frame rate : 23.976 (24000/1001) FPS
Color space : YUV
Chroma subsampling : 4:2:0 (Type 2)
Bit depth : 10 bits
Bits/(Pixel*Frame) : 0.342
Stream size : 108 GiB (83%)
Language : English
Default : No
Forced : No
Color range : Limited
Color primaries : BT.2020
Transfer characteristics : PQ
Matrix coefficients : BT.2020 non-constant
Mastering display color pri : Display P3
Mastering display luminance : min: 0.0050 cd/m2, max: 4000 cd/m2
Maximum Content Light Level : 602 cd/m2
Maximum Frame-Average Light : 184 cd/m2

Audio #1
ID : 2
Format : AC-3
Format/Info : Audio Coding 3
Commercial name : Dolby Digital
Codec ID : A_AC3
Duration : 3 h 48 min
Bit rate mode : Constant
Bit rate : 448 kb/s
Channel(s) : 6 channels
Channel layout : L R C LFE Ls Rs
Sampling rate : 48.0 kHz
Frame rate : 31.250 FPS (1536 SPF)
Compression mode : Lossy
Stream size : 732 MiB (1%)
Title : | Дублированный + Позитив |
Language : Russian
Service kind : Complete Main
Default : Yes
Forced : Yes

Audio #2
ID : 3
Format : DTS ES XXCH XBR
Format/Info : Digital Theater Systems
Commercial name : DTS-HD High Resolution Audio
Codec ID : A_DTS
Duration : 3 h 48 min
Bit rate mode : Constant
Bit rate : 2 559 kb/s
Channel(s) : 7 channels
Channel layout : C L R Ls Rs LFE Cb
Sampling rate : 48.0 kHz
Frame rate : 93.750 FPS (512 SPF)
Bit depth : 24 bits
Compression mode : Lossy
Stream size : 4.08 GiB (3%)
Title : | Киномания/Супербит-СРИ |
Language : Russian
Default : No
Forced : No

Audio #3
ID : 4
Format : DTS ES XXCH XLL
Format/Info : Digital Theater Systems
Commercial name : DTS-HD Master Audio
Codec ID : A_DTS
Duration : 3 h 48 min
Bit rate mode : Variable
Bit rate : 4 767 kb/s
Channel(s) : 7 channels
Channel layout : C L R Ls Rs LFE Cb
Sampling rate : 48.0 kHz
Frame rate : 93.750 FPS (512 SPF)
Bit depth : 24 bits
Compression mode : Lossless
Stream size : 7.60 GiB (6%)
Title : | MVO, Позитив ММ |
Language : Russian
Default : No
Forced : No

Audio #4
ID : 5
Format : DTS ES XXCH
Format/Info : Digital Theater Systems
Commercial name : DTS-ES Discrete
Codec ID : A_DTS
Duration : 3 h 48 min
Bit rate mode : Constant
Bit rate : 1 510 kb/s
Channel(s) : 6 channels
Channel(s)_Original : 7 channels
ChannelLayout_Original : C L R Ls Rs Cs LFE
Sampling rate : 48.0 kHz
Frame rate : 93.750 FPS (512 SPF)
Bit depth : 24 bits
Compression mode : Lossy
Stream size : 2.41 GiB (2%)
Title : | AVO, А.Гаврилов |
Language : Russian
Default : No
Forced : No

Audio #5
ID : 6
Format : DTS ES XXCH
Format/Info : Digital Theater Systems
Commercial name : DTS-ES Discrete
Codec ID : A_DTS
Duration : 3 h 48 min
Bit rate mode : Constant
Bit rate : 1 510 kb/s
Channel(s) : 6 channels
Channel(s)_Original : 7 channels
ChannelLayout_Original : C L R Ls Rs Cs LFE
Sampling rate : 48.0 kHz
Frame rate : 93.750 FPS (512 SPF)
Bit depth : 24 bits
Compression mode : Lossy
Stream size : 2.41 GiB (2%)
Title : | AVO, С.Рябов |
Language : Russian
Default : No
Forced : No

Audio #6
ID : 7
Format : MLP FBA 16-ch
Format/Info : Meridian Lossless Packing FBA with 16-channel presentation
Commercial name : Dolby TrueHD with Dolby Atmos
Codec ID : A_TRUEHD
Duration : 3 h 48 min
Bit rate mode : Variable
Bit rate : 2 994 kb/s
Maximum bit rate : 4 992 kb/s
Channel(s) : 8 channels
Channel layout : L R C LFE Ls Rs Lb Rb
Sampling rate : 48.0 kHz
Frame rate : 1 200.000 FPS (40 SPF)
Compression mode : Lossless
Stream size : 4.78 GiB (4%)
Title : Original
Language : English
Default : No
Forced : No
Number of dynamic objects : 11
Bed channel count : 1 channel
Bed channel configuration : LFE

Audio #7
ID : 8
Format : AC-3
Format/Info : Audio Coding 3
Commercial name : Dolby Digital
Codec ID : A_AC3
Duration : 3 h 48 min
Bit rate mode : Constant
Bit rate : 448 kb/s
Channel(s) : 6 channels
Channel layout : L R C LFE Ls Rs
Sampling rate : 48.0 kHz
Frame rate : 31.250 FPS (1536 SPF)
Compression mode : Lossy
Stream size : 732 MiB (1%)
Language : English
Service kind : Complete Main
Default : No
Forced : No

Text #1
ID : 9
Format : UTF-8
Codec ID : S_TEXT/UTF8
Codec ID/Info : UTF-8 Plain Text
Duration : 2 h 49 min
Bit rate : 2 b/s
Count of elements : 54
Stream size : 2.93 KiB (0%)
Title : Forced Pozitiv MM
Language : Russian
Default : Yes
Forced : Yes

Text #2
ID : 10
Format : UTF-8
Codec ID : S_TEXT/UTF8
Codec ID/Info : UTF-8 Plain Text
Duration : 3 h 19 min
Bit rate : 64 b/s
Count of elements : 1744
Stream size : 93.7 KiB (0%)
Title : Pozitiv MM
Language : Russian
Default : No
Forced : No

Text #3
ID : 11
Format : UTF-8
Codec ID : S_TEXT/UTF8
Codec ID/Info : UTF-8 Plain Text
Duration : 3 h 19 min
Bit rate : 61 b/s
Count of elements : 1716
Stream size : 90.4 KiB (0%)
Title : Henneth-annun
Language : Russian
Default : No
Forced : No

Text #4
ID : 12
Format : UTF-8
Codec ID : S_TEXT/UTF8
Codec ID/Info : UTF-8 Plain Text
Duration : 3 h 21 min
Bit rate : 61 b/s
Count of elements : 1728
Stream size : 91.2 KiB (0%)
Title : Full
Language : Ukrainian
Default : No
Forced : No

Text #5
ID : 13
Format : UTF-8
Codec ID : S_TEXT/UTF8
Codec ID/Info : UTF-8 Plain Text
Duration : 3 h 19 min
Bit rate : 43 b/s
Count of elements : 1803
Stream size : 64.0 KiB (0%)
Title : SDH Colored
Language : English
Default : No
Forced : No

Menu
00:00:00.000 : en:Chapter 01
00:07:36.789 : en:Chapter 02
00:10:35.760 : en:Chapter 03
00:15:39.813 : en:Chapter 04
00:19:58.071 : en:Chapter 05
00:25:32.572 : en:Chapter 06
00:29:56.961 : en:Chapter 07
00:32:10.470 : en:Chapter 08
00:34:51.756 : en:Chapter 09
00:36:18.134 : en:Chapter 10
00:45:03.742 : en:Chapter 11
00:46:43.884 : en:Chapter 12
00:51:21.203 : en:Chapter 13
00:55:12.392 : en:Chapter 14
00:57:29.904 : en:Chapter 15
01:03:31.474 : en:Chapter 16
01:07:16.032 : en:Chapter 17
01:08:53.546 : en:Chapter 18
01:10:35.648 : en:Chapter 19
01:15:15.344 : en:Chapter 20
01:17:46.244 : en:Chapter 21
01:24:11.421 : en:Chapter 22
01:26:12.125 : en:Chapter 23
01:29:41.376 : en:Chapter 24
01:33:14.630 : en:Chapter 25
01:35:54.039 : en:Chapter 26
01:37:32.680 : en:Chapter 27
01:45:43.392 : en:Chapter 01
01:46:59.176 : en:Chapter 02
01:48:42.195 : en:Chapter 03
01:49:59.689 : en:Chapter 04
01:53:05.542 : en:Chapter 05
01:57:51.744 : en:Chapter 06
02:04:17.379 : en:Chapter 07
02:10:47.769 : en:Chapter 08
02:20:12.292 : en:Chapter 09
02:29:53.789 : en:Chapter 10
02:33:06.607 : en:Chapter 11
02:40:23.543 : en:Chapter 12
02:46:03.299 : en:Chapter 13
02:47:43.858 : en:Chapter 14
02:53:07.515 : en:Chapter 15
02:57:59.765 : en:Chapter 16
03:04:27.694 : en:Chapter 17
03:11:43.463 : en:Chapter 18
03:14:25.750 : en:Chapter 19
03:20:43.878 : en:Chapter 20
03:28:24.713 : en:Chapter 21
скриншот  скриншот  скриншот  скриншот  



Скачать Властелин колец: Братство кольца через торрент https://st-kp-yandex-net.translate.goog/images/film_iphone/iphone360_328.jpg Скачать, смотреть онлайн Властелин колец: Братство кольца бесплантно в хорошем качестве Описание: Сказания о Средиземье — это хроника Великой войны за Кольцо, войны, длившейся не одну тысячу лет. Тот, кто владел Кольцом, ... 10 10 11
Info! Золотая раздача, скачанное не засчитывается.
Торрент: Зарегистрирован [2020-11-30 11:05] · скачан: 182 раз
Статус: √ проверено
Размер: 131.17 GB
Как cкачать? Как скачать Властелин колец: Братство кольца через торрент | UTorrent

% Раздел Тема Автор DL S | L
Ultra HD (UHD: 2K, 4K, 8K) [ 109.07 GB ] Властелин колец: Братство кольца / The Lord of the Rings: The Fellowship of the Ring | DUB | 2160p, (Dolby Vision TV bober100 Скачать
3 | 0
Ultra HD (UHD: 2K, 4K, 8K) [ 139.9 GB ] Властелин колец: Братство кольца / The Lord of the Rings: The Fellowship of the Ring | DUB+2xMVO+2xAVO | 2160p, (Dolby Vision bober100 Скачать
1 | 0

28-11-2019 20:33  


Отключить вcю реклaмy на сайте, в т.ч. и в плеере онлайн просмотра!

30-11-2020 12:19 Властелин колец: Братство кольца Скачать торрент  

может я доживу до этого будущего,когда у меня будет телик-метра три по диагонали.еще новый быстрый способ скачать.я тогда запишу себе все любимые фильмы по 150 гигабайт веса,4к или 8к и буду наслаждаться просмотром.но к сожалению я уже не доживу до этого счастья.мне уже 55. извините ребята.



30-11-2020 13:45 Властелин колец: Братство кольца Скачать торрент  

SASHA66 писал(а):

может я доживу до этого будущего,когда у меня будет телик-метра три по диагонали.еще новый быстрый способ скачать.я тогда запишу себе все любимые фильмы по 150 гигабайт веса,4к или 8к и буду наслаждаться просмотром.но к сожалению я уже не доживу до этого счастья.мне уже 55. извините ребята.

...Сейчас 4к телики стоят не так дорого по сравнению когда они начали только появляться, до 50к можно хорошую модель взять. А если говорить о 2-3 метра тв это уже нужен проектор 4к что тоже есть в продаже но там уже цена кусь-кусь



02-12-2020 01:59 Властелин колец: Братство кольца Скачать торрент  

ждемс качественный рип с 4к этих фильмов на замену старым блюровским рипам



02-12-2020 07:00 Властелин колец: Братство кольца Скачать торрент  

GENDALF87 писал(а):

ждемс качественный рип с 4к этих фильмов на замену старым блюровским рипам

Рипы уже не будут такими качественными как ремуксы как ни крути



    Дорогой пользователь! Огромная просьба, поблагодарите релизера, оцените раздачу и оставьте свои комментарий, если Вы скачали Властелин колец: Братство кольца через торрент бесплатно!!
    Комментировать посты могут только пользователи прошедшие не сложную регистрацию
    Показать сообщения:    


    Властелин колец: Братство кольца через торрент
    Скачать бесплатно Властелин колец: Братство кольца
    Властелин колец: Братство кольца скачать торрент
    Властелин колец: Братство кольца смотреть онлайн
    Cкачать фильм Властелин колец: Братство кольца бесплатно
    Властелин колец: Братство кольца скачать торрент в хорошем качестве
    Властелин колец: Братство кольца смотреть онлайн бесплатно в хорошем качестве
    Вы не можете начинать темы
    Вы не можете отвечать на сообщения
    Вы не можете редактировать свои сообщения
    Вы не можете удалять свои сообщения
    Вы не можете голосовать в опросах
    Вы не можете прикреплять файлы к сообщениям
    Вы можете скачивать файлы
    Властелин колец: Братство кольца / The Lord of the Rings: The Fellowship of the Ring [2001, фэнтези, приключения, драма, UHD BDRemux 2160p] [Дубляж+MVO+AVO] Расширенная версия смотреть онлайн, скачать торрент picoco.icu