1 сезон

3 сезон

iTunes

1

iTunes

DUB Netflix

iTunes

13

1 сезон

RePack

30

Deluxe

pack

Легкие деньги

ВАЖНО

ИГРА 18+

pack

RePack

MK11

RePack

jed

RePack

fifa19

RePack

RDR2

RePack

NEED FOR SPEED™ PAYBACK

4 сезон

9 сезон

Бесстыжие 9 сезон

Все сериалы

все сериалы на PB.wtf

RePack

FAR CRY 5

Anonymous, добрый день, мы не успеваем до 1 числа собрать деньги на оплату серверов, помогите нам пожалуйста в это трудное время. В качестве благодарности мы отключим Вам всю рекламу на сайте (укажите свой ник в строку Ваше имя)!

×
  
Magnet ссылка

Идеальная семья / Сезон: 1 / Серии: 1-16 из 16 (Владимир Котт) [2020, Комедия, SATRip] piratbit.org

Идеальная семья через торрент piratbit.org

Раздают: 2 [ 0 KB/s ]
Размер: 4.99 GB | Добавлен: 5 мес. 25 д. назад | Торрент скачан:68 раз
Скачать  

30-11-2020 12:03 Идеальная семья Скачать торрент  

Идеальная семья
Год выпуска: 2020
Страна: Россия
Выпущено: 1-2-3 Production по заказу телеканала ТНТ
Жанр: Комедия
Продолжительность: ~ 00:25:00 серия
Перевод: Не требуется
Субтитры: отсутствуют

Режиссер: Владимир Котт



В ролях: Павел Деревянко, Ольга Медынич, Софья Лукьянова, Иван Бычков (IV), Вячеслав Манучаров, Юлия Соболева, Сергей Марухин, Сергей Фролов, Елена Муравьёва, Наталья Бардо, Борис Дергачёв, Валентин Самохин

Описание: Алексей Соколов попадает в неприятности, которые грозят обернуться большими проблемами. Поэтому он с женой и детьми решает «спрятаться» у всех на виду в новом реалити-шоу «Идеальная семья». В проекте принимают участие семьи со всей страны, на кону – звание «Идеальной семьи» и приз в 10 млн рублей! В ближайшие несколько месяцев Соколовым вместе с другими участниками предстоит жить в охраняемом поселке под наблюдением многочисленных камер, а значит, чтобы удержаться в проекте, Соколовым придется забыть про скандалы и взаимные обиды и попытаться вернуть в семью взаимопонимание и любовь.

Качество: SATRip
Формат: AVI

Видео: XviD, ~ 1650 Кбит/с, 720x400
Аудио: MP3, 2 ch, 192 Кбит/с
скриншот  скриншот  скриншот  скриншот  

Общее
Полное имя : C:\Idealnaya.semya.2020.XviD.SATRip.25Kuzmich\Idealnaya.semya.e01.XviD.SATRip.25Kuzmich.avi
Формат : AVI
Формат/Информация : Audio Video Interleave
Размер файла : 351 Мбайт
Продолжительность : 26 м. 29 с.
Общий поток : 1852 Кбит/сек
Программа кодирования : VirtualDubMod 1.5.10.3 | www.virtualdub-fr.org || (build 2550/release)
Библиотека кодирования : VirtualDubMod build 2550/release

Видео
Идентификатор : 0
Формат : MPEG-4 Visual
Профиль формата : Advanced Simple@L5
Настройки формата : BVOP1
Параметр BVOP формата : 1
Параметр QPel формата : Нет
Параметр GMC формата : Без точки перехода
Параметр матрицы формата : Default (MPEG)
Идентификатор кодека : XVID
Идентификатор кодека/Подсказка : XviD
Продолжительность : 26 м. 29 с.
Битрейт : 1577 Кбит/сек
Ширина : 720 пикселей
Высота : 400 пикселей
Соотношение сторон : 16:9
Частота кадров : 25,000 кадров/сек
Цветовое пространство : YUV
Субдискретизация насыщенности : 4:2:0
Битовая глубина : 8 бит
Тип развёртки : Прогрессивная
Метод сжатия : С потерями
Бит/(Пиксели*Кадры) : 0.219
Размер потока : 299 Мбайт (85%)
Библиотека кодирования : XviD 73

Аудио
Идентификатор : 1
Формат : MPEG Audio
Версия формата : Version 1
Профиль формата : Layer 3
Настройки формата : Joint stereo / MS Stereo
Идентификатор кодека : 55
Идентификатор кодека/Подсказка : MP3
Продолжительность : 26 м. 29 с.
Вид битрейта : Постоянный
Битрейт : 192 Кбит/сек
Каналы : 2 канала
Частота : 48,0 КГц
Частота кадров : 41,667 кадра/сек (1152 SPF)
Метод сжатия : С потерями
Размер потока : 36,4 Мбайт (10%)
Выравнивание : Соединение по промежуткам
Библиотека кодирования : LAME3.99r
Настройки программы : -m j -V 4 -q 2 -lowpass 18.6 -b 192

Внимание! Раздача ведётся путём добавления новых серий; при каждом добавлении создаётся новый торрент.
Чтобы начать докачку новой серии, пользователям необходимо сделать следующее:
1. Остановить скачивание;
2. Удалить старый торрент у себя из клиента (старые серии удалять не надо);
3. Скачать новый торрент и запустить его у себя в клиенте вместо старого, при этом указать клиенту путь в старую папку куда и должно происходить скачивание новых серий. Ваш клиент при этом должен произвести хеширование (проверку) старой папки и будет докачивать только те серии, которых у вас ещё нет. Старые серии при этом не удаляются, а продолжают раздаваться! Eсли вы уже удалили старые серии, то предотвратить повторную закачку старых серий можно, отжав галочку в соответствующих местах при запуске нового торрента.

piratbit.org



Скачать Идеальная семья через торрент https://img11.lostpic.net/2020/11/30/2f5f9aefc5f3cb8ae2fd3a788af8a585.jpg Скачать фильм Идеальная семья через торрент бесплантно в хорошем качестве Описание: Алексей Соколов попадает в неприятности, которые грозят обернуться большими проблемами. Поэтому он с женой и детьми решает ... 10 10 14
Торрент: Зарегистрирован [2020-12-23 18:16] · скачан: 68 раз
Статус: √ проверено
Размер: 4.99 GB
Как cкачать? Как скачать Идеальная семья через торрент | UTorrent

% Раздел Тема Автор DL S | L
TNT serials [ 8.71 GB ] Идеальная семья / Сезон: 1 / Серии: 1-16 из 16 + Фильм о фильме [2020 WEBRip 720p ] bober100 Скачать
1 | 0
Наши сериалы [ 14.52 GB ] Идеальная семья / Сезон: 1 / Серии: 1-14 из 16 [2020 HDTV 1080i] bober100 Скачать
1 | 0
TNT serials [ 5.06 GB ] Идеальная семья / Сезон: 1 / Серии: 1-16 из 16 + Фильм о фильме [2020 WEBRip-AVC ] bober100 Скачать
1 | 0
TNT serials [ 5.81 GB ] Идеальная семья / Сезон: 1 / Серии: 1-16 из 16 + Фильм о фильме [2020 WEBRip ] bober100 Скачать
2 | 0
TNT serials [ 12.73 GB ] Идеальная семья / Сезон: 1 / Серии: 1-16 из 16 + Фильм о фильме [2020 WEBRip 1080p ] bober100 Скачать
2 | 0

28-11-2019 20:33  

Отключить всю рекламу на сайте

    Дорогой пользователь! Огромная просьба, поблагодарите релизера, оцените раздачу и оставьте свои комментарий, если Вы скачали Идеальная семья через торрент бесплатно! Внесите свою лепту в развитие PiratBit!
    Комментировать посты могут только пользователи прошедшие не сложную регистрацию
    Показать сообщения:    

    Идеальная семья через торрент
    Скачать бесплатно Идеальная семья
    Идеальная семья скачать торрент
    Идеальная семья смотреть онлайн
    Cкачать фильм Идеальная семья бесплатно
    Идеальная семья скачать торрент в хорошем качестве
    Идеальная семья смотреть онлайн бесплатно в хорошем качестве


    Вы не можете начинать темы
    Вы не можете отвечать на сообщения
    Вы не можете редактировать свои сообщения
    Вы не можете удалять свои сообщения
    Вы не можете голосовать в опросах
    Вы не можете прикреплять файлы к сообщениям
    Вы можете скачивать файлы