1 сезон

3 сезон

iTunes

1

iTunes

DUB Netflix

iTunes

13

1 сезон

RePack

30

Deluxe

pack

Легкие деньги

ВАЖНО

ИГРА 18+

pack

RePack

MK11

RePack

jed

RePack

fifa19

RePack

RDR2

RePack

NEED FOR SPEED™ PAYBACK

4 сезон

9 сезон

Бесстыжие 9 сезон

Все сериалы

все сериалы на PB.wtf

RePack

FAR CRY 5

Anonymous, добрый вечер, мы не успеваем до 1 числа собрать деньги на оплату серверов, помогите нам пожалуйста в это трудное время. В качестве благодарности мы отключим Вам всю рекламу на сайте (укажите свой ник в строку Ваше имя)!

×
  
Magnet ссылка

Идеальная семья / Сезон: 1 / Серии: 1-16 из 16 + Фильм о фильме (Владимир Котт) [2020, Комедия, WEBRip 1080p, (Версия 18+)] piratbit.org

Идеальная семья через торрент piratbit.org

Раздают: 3 [ 14 KB/s ]
Размер: 12.73 GB | Добавлен: 5 мес. 27 д. назад | Торрент скачан:187 раз
Скачать  

30-11-2020 17:40 Идеальная семья Скачать торрент  

Идеальная семья
Год выпуска: 2020
Страна: Россия
Выпущено: 1-2-3 Production по заказу телеканала ТНТ
Жанр: Комедия
Продолжительность: ~ 00:25:00 серия
Перевод: Не требуется
Субтитры: отсутствуют
Версия 18+.

Режиссер: Владимир Котт



В ролях: Павел Деревянко, Ольга Медынич, Софья Лукьянова, Иван Бычков (IV), Вячеслав Манучаров, Юлия Соболева, Сергей Марухин, Сергей Фролов, Елена Муравьёва, Наталья Бардо, Борис Дергачёв, Валентин Самохин

Описание: Алексей Соколов попадает в неприятности, которые грозят обернуться большими проблемами. Поэтому он с женой и детьми решает «спрятаться» у всех на виду в новом реалити-шоу «Идеальная семья». В проекте принимают участие семьи со всей страны, на кону – звание «Идеальной семьи» и приз в 10 млн рублей! В ближайшие несколько месяцев Соколовым вместе с другими участниками предстоит жить в охраняемом поселке под наблюдением многочисленных камер, а значит, чтобы удержаться в проекте, Соколовым придется забыть про скандалы и взаимные обиды и попытаться вернуть в семью взаимопонимание и любовь.

Качество: WEBRip 1080p
Формат: MKV

Видео: MPEG-4 AVC, ~ 4500 Кбит/с, 1920x1072
Аудио: 48.0 kHz, AC3 Dolby Digital, 2/0 (L,R) ch, ~ 192 kbps
скриншот  скриншот  скриншот  скриншот  

Общее
Уникальный идентификатор : 237907479220227545963721776686873863264 (0xB2FB5056AA0E8639A7155EB917126460)
Полное имя : C:\Idealnaya.semya.2020.WEB-DL.(1080p).Getty\Idealnaya.semya.e01.2020.WEB-DL.(1080p).Getty.mkv
Формат : Matroska
Версия формата : Version 4
Размер файла : 898 Мбайт
Продолжительность : 27 м. 26 с.
Режим общего битрейта : Переменный
Общий поток : 4577 Кбит/сек
Название фильма : Idealnaya.semya.e01.2020.WEB-DL.(1080p).Getty
Дата кодирования : UTC 2020-11-30 17:34:01
Программа кодирования : mkvmerge v7.8.0 ('River Man') 32bit built on Mar 27 2015 16:18:02
Библиотека кодирования : libebml v1.3.1 + libmatroska v1.4.2

Видео
Идентификатор : 1
Формат : AVC
Формат/Информация : Advanced Video Codec
Профиль формата : High@L4
Настройки формата : CABAC / 1 Ref Frames
Параметр CABAC формата : Да
Параметр RefFrames формата : 1 кадр
Идентификатор кодека : V_MPEG4/ISO/AVC
Продолжительность : 27 м. 26 с.
Вид битрейта : Переменный
Битрейт : 4400 Кбит/сек
Максимальный битрейт : 4500 Кбит/сек
Ширина : 1920 пикселей
Высота : 1072 пикселя
Соотношение сторон : 16:9
Режим частоты кадров : Постоянный
Частота кадров : 25,000 кадров/сек
Цветовое пространство : YUV
Субдискретизация насыщенности : 4:2:0
Битовая глубина : 8 бит
Тип развёртки : Прогрессивная
Бит/(Пиксели*Кадры) : 0.083
Размер потока : 843 Мбайт (94%)
Default : Да
Forced : Нет

Аудио
Идентификатор : 2
Формат : AC-3
Формат/Информация : Audio Coding 3
Коммерческое название : Dolby Digital
Идентификатор кодека : A_AC3
Продолжительность : 27 м. 26 с.
Вид битрейта : Постоянный
Битрейт : 192 Кбит/сек
Каналы : 2 канала
ChannelLayout : L R
Частота : 48,0 КГц
Частота кадров : 31,250 кадров/сек (1536 SPF)
Битовая глубина : 16 бит
Метод сжатия : С потерями
Размер потока : 37,7 Мбайт (4%)
ServiceKind/String : Complete Main
Default : Да
Forced : Нет

Внимание! Раздача ведётся путём добавления новых серий; при каждом добавлении создаётся новый торрент.
Чтобы начать докачку новой серии, пользователям необходимо сделать следующее:
1. Остановить скачивание;
2. Удалить старый торрент у себя из клиента (старые серии удалять не надо);
3. Скачать новый торрент и запустить его у себя в клиенте вместо старого, при этом указать клиенту путь в старую папку куда и должно происходить скачивание новых серий. Ваш клиент при этом должен произвести хеширование (проверку) старой папки и будет докачивать только те серии, которых у вас ещё нет. Старые серии при этом не удаляются, а продолжают раздаваться! Eсли вы уже удалили старые серии, то предотвратить повторную закачку старых серий можно, отжав галочку в соответствующих местах при запуске нового торрента.

piratbit.org



Скачать Идеальная семья через торрент https://img11.lostpic.net/2020/11/30/2f5f9aefc5f3cb8ae2fd3a788af8a585.jpg Скачать фильм Идеальная семья через торрент бесплантно в хорошем качестве Описание: Алексей Соколов попадает в неприятности, которые грозят обернуться большими проблемами. Поэтому он с женой и детьми решает ... 9.7 10 29
Торрент: Зарегистрирован [2020-12-23 18:17] · скачан: 187 раз
Статус: √ проверено
Размер: 12.73 GB
Как cкачать? Как скачать Идеальная семья через торрент | UTorrent

% Раздел Тема Автор DL S | L
TNT serials [ 8.71 GB ] Идеальная семья / Сезон: 1 / Серии: 1-16 из 16 + Фильм о фильме [2020 WEBRip 720p ] bober100 Скачать
1 | 0
TNT serials [ 5.06 GB ] Идеальная семья / Сезон: 1 / Серии: 1-16 из 16 + Фильм о фильме [2020 WEBRip-AVC ] bober100 Скачать
1 | 0
TNT serials [ 5.81 GB ] Идеальная семья / Сезон: 1 / Серии: 1-16 из 16 + Фильм о фильме [2020 WEBRip ] bober100 Скачать
1 | 0


Последний раз редактировалось: bober100 (2020-12-17 18:44), всего редактировалось 8 раз(а)

28-11-2019 20:33  

Отключить всю рекламу на сайте


    Дорогой пользователь! Огромная просьба, поблагодарите релизера, оцените раздачу и оставьте свои комментарий, если Вы скачали Идеальная семья через торрент бесплатно! Внесите свою лепту в развитие PiratBit!
    Комментировать посты могут только пользователи прошедшие не сложную регистрацию
    Показать сообщения:    

    Идеальная семья через торрент
    Скачать бесплатно Идеальная семья
    Идеальная семья скачать торрент
    Идеальная семья смотреть онлайн
    Cкачать фильм Идеальная семья бесплатно
    Идеальная семья скачать торрент в хорошем качестве
    Идеальная семья смотреть онлайн бесплатно в хорошем качестве


    Вы не можете начинать темы
    Вы не можете отвечать на сообщения
    Вы не можете редактировать свои сообщения
    Вы не можете удалять свои сообщения
    Вы не можете голосовать в опросах
    Вы не можете прикреплять файлы к сообщениям
    Вы можете скачивать файлы