1 сезон

3 сезон

iTunes

1

iTunes

DUB Netflix

iTunes

13

1 сезон

RePack

30

Deluxe

pack

Легкие деньги

ВАЖНО

ИГРА 18+

pack

RePack

MK11

RePack

jed

RePack

fifa19

RePack

RDR2

RePack

NEED FOR SPEED™ PAYBACK

4 сезон

9 сезон

Бесстыжие 9 сезон

Все сериалы

все сериалы на PB.wtf

RePack

FAR CRY 5

Anonymous, добрый день, мы не успеваем до 1 числа собрать деньги на оплату серверов, помогите нам пожалуйста в это трудное время. В качестве благодарности мы отключим Вам всю рекламу на сайте (укажите свой ник в строку Ваше имя)!

×
  
Magnet ссылка

Идеальная семья / Сезон: 1 / Серии: 1-16 из 16 + Фильм о фильме (Владимир Котт) [2020, Комедия, WEBRip-AVC, (Версия 18+)] piratbit.org

Идеальная семья через торрент piratbit.org

Размер: 5.06 GB | Добавлен: 5 мес. 25 д. назад | Торрент скачан:165 раз
Скачать  

30-11-2020 19:15 Идеальная семья Скачать торрент  

Идеальная семья
Год выпуска: 2020
Страна: Россия
Выпущено: 1-2-3 Production по заказу телеканала ТНТ
Жанр: Комедия
Продолжительность: ~ 00:25:00 серия
Перевод: Не требуется
Субтитры: отсутствуют
Версия 18+.

Режиссер: Владимир Котт



В ролях: Павел Деревянко, Ольга Медынич, Софья Лукьянова, Иван Бычков (IV), Вячеслав Манучаров, Юлия Соболева, Сергей Марухин, Сергей Фролов, Елена Муравьёва, Наталья Бардо, Борис Дергачёв, Валентин Самохин

Описание: Алексей Соколов попадает в неприятности, которые грозят обернуться большими проблемами. Поэтому он с женой и детьми решает «спрятаться» у всех на виду в новом реалити-шоу «Идеальная семья». В проекте принимают участие семьи со всей страны, на кону – звание «Идеальной семьи» и приз в 10 млн рублей! В ближайшие несколько месяцев Соколовым вместе с другими участниками предстоит жить в охраняемом поселке под наблюдением многочисленных камер, а значит, чтобы удержаться в проекте, Соколовым придется забыть про скандалы и взаимные обиды и попытаться вернуть в семью взаимопонимание и любовь.

Качество: WEBRip-AVC
Формат: MKV

Видео: MPEG-4 AVC, ~ 1600 Кбит/с, 1024x576, 25 кадр/с
Аудио: 48.0 kHz, AC3 Dolby Digital, 2/0 (L,R) ch, ~ 192 kbps
скриншот  скриншот  скриншот  скриншот  

General
Unique ID : 208775573584564330759659847512225323205 (0x9D10B67F748DA07C8E24539673D998C5)
Complete name : F:\Идеальная семья.(2020).WEBRip.(AVC).Files-x\01.Idealnaya.semya.(2020).WEBRip.(AVC).by.Серый1779.Files-x.mkv
Format : Matroska
Format version : Version 2
File size : 352 MiB
Duration : 27 min 26 s
Overall bit rate : 1 793 kb/s
Encoded date : UTC 2020-11-30 18:31:25
Writing application : mkvmerge v7.8.0 ('River Man') 32bit built on Apr 3 2015 12:11:22
Writing library : libebml v1.3.1 + libmatroska v1.4.2

Video
ID : 1
Format : AVC
Format/Info : Advanced Video Codec
Format profile : High@L4.1
Format settings : CABAC / 9 Ref Frames
Format settings, CABAC : Yes
Format settings, RefFrames : 9 frames
Codec ID : V_MPEG4/ISO/AVC
Duration : 27 min 26 s
Bit rate : 1 600 kb/s
Width : 1 024 pixels
Height : 576 pixels
Display aspect ratio : 16:9
Frame rate mode : Constant
Frame rate : 25.000 FPS
Color space : YUV
Chroma subsampling : 4:2:0
Bit depth : 8 bits
Scan type : Progressive
Bits/(Pixel*Frame) : 0.109
Stream size : 307 MiB (87%)
Writing library : x264 core 146 r2538 121396c
Encoding settings : cabac=1 / ref=9 / deblock=1:-2:-1 / analyse=0x3:0x133 / me=umh / subme=9 / psy=1 / psy_rd=1.00:0.15 / mixed_ref=1 / me_range=32 / chroma_me=1 / trellis=2 / 8x8dct=1 / cqm=0 / deadzone=21,11 / fast_pskip=0 / chroma_qp_offset=-3 / threads=18 / lookahead_threads=3 / sliced_threads=0 / nr=0 / decimate=1 / interlaced=0 / bluray_compat=0 / constrained_intra=0 / bframes=9 / b_pyramid=2 / b_adapt=2 / b_bias=0 / direct=1 / weightb=1 / open_gop=0 / weightp=2 / keyint=250 / keyint_min=25 / scenecut=40 / intra_refresh=0 / rc=2pass / mbtree=0 / bitrate=1600 / ratetol=1.0 / qcomp=0.60 / qpmin=0 / qpmax=69 / qpstep=4 / cplxblur=20.0 / qblur=0.5 / ip_ratio=1.40 / pb_ratio=1.30 / aq=2:1.00
Default : Yes
Forced : No
Color range : Limited
Color primaries : BT.709
Transfer characteristics : BT.709
Matrix coefficients : BT.709

Audio
ID : 2
Format : AC-3
Format/Info : Audio Coding 3
Format settings, Endianness : Big
Codec ID : A_AC3
Duration : 27 min 26 s
Bit rate mode : Constant
Bit rate : 192 kb/s
Channel(s) : 2 channels
Channel positions : Front: L R
Sampling rate : 48.0 kHz
Frame rate : 31.250 FPS (1536 SPF)
Bit depth : 16 bits
Compression mode : Lossy
Stream size : 37.7 MiB (11%)
Service kind : Complete Main
Default : Yes
Forced : No

Внимание! Раздача ведётся путём добавления новых серий; при каждом добавлении создаётся новый торрент.
Чтобы начать докачку новой серии, пользователям необходимо сделать следующее:
1. Остановить скачивание;
2. Удалить старый торрент у себя из клиента (старые серии удалять не надо);
3. Скачать новый торрент и запустить его у себя в клиенте вместо старого, при этом указать клиенту путь в старую папку куда и должно происходить скачивание новых серий. Ваш клиент при этом должен произвести хеширование (проверку) старой папки и будет докачивать только те серии, которых у вас ещё нет. Старые серии при этом не удаляются, а продолжают раздаваться! Eсли вы уже удалили старые серии, то предотвратить повторную закачку старых серий можно, отжав галочку в соответствующих местах при запуске нового торрента.

piratbit.org



Скачать Идеальная семья через торрент https://img11.lostpic.net/2020/11/30/2f5f9aefc5f3cb8ae2fd3a788af8a585.jpg Скачать фильм Идеальная семья через торрент бесплантно в хорошем качестве Описание: Алексей Соколов попадает в неприятности, которые грозят обернуться большими проблемами. Поэтому он с женой и детьми решает ... 10 10 8
Торрент: Зарегистрирован [2020-12-23 23:48] · скачан: 165 раз
Статус: √ проверено
Размер: 5.06 GB
Как cкачать? Как скачать Идеальная семья через торрент | UTorrent

% Раздел Тема Автор DL S | L
TNT serials [ 8.71 GB ] Идеальная семья / Сезон: 1 / Серии: 1-16 из 16 + Фильм о фильме [2020 WEBRip 720p ] bober100 Скачать
1 | 0
TNT serials [ 5.81 GB ] Идеальная семья / Сезон: 1 / Серии: 1-16 из 16 + Фильм о фильме [2020 WEBRip ] bober100 Скачать
2 | 0
TNT serials [ 12.73 GB ] Идеальная семья / Сезон: 1 / Серии: 1-16 из 16 + Фильм о фильме [2020 WEBRip 1080p ] bober100 Скачать
2 | 0

28-11-2019 20:33  

Отключить всю рекламу на сайте

    Дорогой пользователь! Огромная просьба, поблагодарите релизера, оцените раздачу и оставьте свои комментарий, если Вы скачали Идеальная семья через торрент бесплатно! Внесите свою лепту в развитие PiratBit!
    Комментировать посты могут только пользователи прошедшие не сложную регистрацию
    Показать сообщения:    

    Идеальная семья через торрент
    Скачать бесплатно Идеальная семья
    Идеальная семья скачать торрент
    Идеальная семья смотреть онлайн
    Cкачать фильм Идеальная семья бесплатно
    Идеальная семья скачать торрент в хорошем качестве
    Идеальная семья смотреть онлайн бесплатно в хорошем качестве


    Вы не можете начинать темы
    Вы не можете отвечать на сообщения
    Вы не можете редактировать свои сообщения
    Вы не можете удалять свои сообщения
    Вы не можете голосовать в опросах
    Вы не можете прикреплять файлы к сообщениям
    Вы можете скачивать файлы