Достать ножи: Стеклянная луковица

MVO

Добыча

Дубляж

Уэнсдэй

1 сезон

Тор

Дубляж

13 клиническая

1 сезон

Жестокая ночь

MVO

Одни из нас

1 сезон

Deluxe

pack

Рекомендуем

30

Пиратка

ВАЖНО

ВАЖНО

Ghostwire

Пиратка

jed

RePack

nioh2

RePack

RDR2

RePack

NEED FOR SPEED™ PAYBACK

RePack

скачать торрент

Кинопоиск HD

Острые козырьки 6 сезон

6 сезон

FAR CRY 6

RePack

скачать торрент

Лицензия

скачать торрент

MVO

1

1 сезон

скачать торрент

1 сезон

скачать торрент

Лицензия

  

Хоббит: Пустошь Смауга / The Hobbit: The Desolation of Smaug (Питер Джексон) [2013, Фэнтези, приключения, UHD BDRemux 2160p] [Расширенная версия] Дубляж [Лицензия] +MVO+2xAVO

Хоббит: Пустошь Смауга через торрент piratbit.org

Раздают: 1 [ 946 KB/s ]
Размер: 97.23 GB | Добавлен: 2 года 2 мес. назад | Торрент скачан:228 раз
Смотреть онлайн | Скачать | Поддержите нас   

30-11-2020 21:49 Хоббит: Пустошь Смауга Скачать торрент  

Хоббит: Пустошь Смауга | The Hobbit: The Desolation of Smaug
Год выпуска: 2013
Страна: США, Новая Зеландия
Студия: 3Foot7, Metro-Goldwyn-Mayer (MGM), New Line Cinema, WingNut Films
Жанр: Фэнтези, приключения
Продолжительность: 03:02:31
Перевод(ы):
#1: Дублированный | Blu-ray CEE
#2: Профессиональный многоголосый | Омикрон
#2: Авторский | Ю. Сербин
#3: Авторский | В. Горчаков
Субтитры: Русские (Forced, full), английские

Режиссер: Питер Джексон

rating

В ролях: Мартин Фриман, Иэн МакКеллен, Орландо Блум, Эванджелин Лилли, Бенедикт Камбербэтч, Люк Эванс, Элайджа Вуд, Иэн Холм, Кейт Бланшетт, Энди Серкис, Кристофер Ли, Ричард Армитедж, Ли Пейс, Стивен Фрай

Описание: После успешного перехода через Туманные горы, Торин и компания вынуждены обратиться за помощью к могучему незнакомцу, прежде чем отправиться в опасное Лихолесье без волшебника. Их компания обязана завершить свое путешествие к Одинокой горе, где Бэггинсу нужно будет найти потайную дверь, чтобы добраться до клада Смауга…

Качество: UHD BDRemux 2160p | Расширенная версия
Формат: MKV

Видео: 3840x2160 at 23.976 fps, MPEG-H HEVC HDR Video, 55800 kbps avg
Аудио #01: 48 kHz, AC3, 5.1, 448 Kbps | Дублированный | Blu-ray CEE | RUS |
Аудио #02: 48 kHz, DTS-HD MA, 7.1, 4884 Kbps | Профессиональный многоголосый | Омикрон | RUS |
Аудио #03: 48 kHz, DTS-HD MA, 7.1, 4888 Kbps | Авторский | Ю. Сербин | RUS |
Аудио #04: 48 kHz, DTS-HD MA, 7.1, 4863 Kbps | Авторский | В. Горчаков | RUS |
Аудио #05: 48 kHz, TrueHD, 7.1, 3200 Kbps | Оригинал | ENG |
Аудио #06: 48 kHz, AC3, 7.1, 448 Kbps | Оригинал | ENG |
скриншот  скриншот  скриншот  скриншот  скриншот  

General
Unique ID : 36221847087559874728515448921093496164 (0x1B4012F150F9E0EE7B9441FF4B42DD64)
Complete name : F:Video111The.Hobbit.Desolation.of.Smaug.2013.EXTENDED.BDREMUX.2160p.HDR.seleZen.mkv
Format : Matroska
Format version : Version 4
File size : 97.2 GiB
Duration : 3 h 6 min
Overall bit rate mode : Variable
Overall bit rate : 74.6 Mb/s
Movie name : The.Hobbit.Desolation.of.Smaug.2013.EXTENDED from seleZen
Encoded date : UTC 2020-11-30 21:17:50
Writing application : mkvmerge v40.0.0 ('Old Town Road + Pony') 64-bit
Writing library : libebml v1.3.9 + libmatroska v1.5.2

Video
ID : 1
Format : HEVC
Format/Info : High Efficiency Video Coding
Format profile : Main 10@L5.1@High
HDR format : SMPTE ST 2086, HDR10 compatible
Codec ID : V_MPEGH/ISO/HEVC
Duration : 3 h 6 min
Bit rate : 55.8 Mb/s
Width : 3 840 pixels
Height : 2 160 pixels
Display aspect ratio : 16:9
Frame rate mode : Constant
Frame rate : 23.976 (24000/1001) FPS
Color space : YUV
Chroma subsampling : 4:2:0 (Type 2)
Bit depth : 10 bits
Bits/(Pixel*Frame) : 0.281
Stream size : 72.7 GiB (75%)
Language : English
Default : Yes
Forced : No
Color range : Limited
Color primaries : BT.2020
Transfer characteristics : PQ
Matrix coefficients : BT.2020 non-constant
Mastering display color pri : Display P3
Mastering display luminance : min: 0.0050 cd/m2, max: 4000 cd/m2
Maximum Content Light Level : 1122 cd/m2
Maximum Frame-Average Light : 216 cd/m2

Audio #1
ID : 2
Format : AC-3
Format/Info : Audio Coding 3
Commercial name : Dolby Digital
Codec ID : A_AC3
Duration : 3 h 6 min
Bit rate mode : Constant
Bit rate : 448 kb/s
Channel(s) : 6 channels
Channel layout : L R C LFE Ls Rs
Sampling rate : 48.0 kHz
Frame rate : 31.250 FPS (1536 SPF)
Compression mode : Lossy
Stream size : 598 MiB (1%)
Title : Дубляж [Blu-Ray CEE]
Language : Russian
Service kind : Complete Main
Default : Yes
Forced : Yes

Audio #2
ID : 3
Format : DTS XLL
Format/Info : Digital Theater Systems
Commercial name : DTS-HD Master Audio
Codec ID : A_DTS
Duration : 3 h 6 min
Bit rate mode : Variable
Bit rate : 4 884 kb/s
Channel(s) : 8 channels
Channel layout : C L R LFE Lb Rb Lss Rss
Sampling rate : 48.0 kHz
Frame rate : 93.750 FPS (512 SPF)
Bit depth : 24 bits
Compression mode : Lossless
Stream size : 6.37 GiB (7%)
Title : MVO [Omicron]
Language : Russian
Default : No
Forced : No

Audio #3
ID : 4
Format : DTS XLL
Format/Info : Digital Theater Systems
Commercial name : DTS-HD Master Audio
Codec ID : A_DTS
Duration : 3 h 6 min
Bit rate mode : Variable
Bit rate : 4 888 kb/s
Channel(s) : 8 channels
Channel layout : C L R LFE Lb Rb Lss Rss
Sampling rate : 48.0 kHz
Frame rate : 93.750 FPS (512 SPF)
Bit depth : 24 bits
Compression mode : Lossless
Stream size : 6.37 GiB (7%)
Title : AVO [Сербин, Юрий Владимирович]
Language : Russian
Default : No
Forced : No

Audio #4
ID : 5
Format : DTS XLL
Format/Info : Digital Theater Systems
Commercial name : DTS-HD Master Audio
Codec ID : A_DTS
Duration : 3 h 6 min
Bit rate mode : Variable
Bit rate : 4 863 kb/s
Channel(s) : 8 channels
Channel layout : C L R LFE Lb Rb Lss Rss
Sampling rate : 48.0 kHz
Frame rate : 93.750 FPS (512 SPF)
Bit depth : 24 bits
Compression mode : Lossless
Stream size : 6.34 GiB (7%)
Title : AVO [Горчаков, Василий Овидиевич]
Language : Russian
Default : No
Forced : No

Audio #5
ID : 6
Format : MLP FBA 16-ch
Format/Info : Meridian Lossless Packing FBA with 16-channel presentation
Commercial name : Dolby TrueHD with Dolby Atmos
Codec ID : A_TRUEHD
Duration : 3 h 6 min
Bit rate mode : Variable
Bit rate : 3 200 kb/s
Maximum bit rate : 5 031 kb/s
Channel(s) : 8 channels
Channel layout : L R C LFE Ls Rs Lb Rb
Sampling rate : 48.0 kHz
Frame rate : 1 200.000 FPS (40 SPF)
Compression mode : Lossless
Stream size : 4.17 GiB (4%)
Title : Original
Language : English
Default : No
Forced : No
Number of dynamic objects : 11
Bed channel count : 1 channel
Bed channel configuration : LFE

Audio #6
ID : 7
Format : AC-3
Format/Info : Audio Coding 3
Commercial name : Dolby Digital
Codec ID : A_AC3
Duration : 3 h 6 min
Bit rate mode : Constant
Bit rate : 448 kb/s
Channel(s) : 6 channels
Channel layout : L R C LFE Ls Rs
Sampling rate : 48.0 kHz
Frame rate : 31.250 FPS (1536 SPF)
Compression mode : Lossy
Stream size : 598 MiB (1%)
Language : English
Service kind : Complete Main
Default : No
Forced : No

Text #1
ID : 8
Format : UTF-8
Codec ID : S_TEXT/UTF8
Codec ID/Info : UTF-8 Plain Text
Duration : 3 h 5 min
Bit rate : 2 b/s
Count of elements : 100
Stream size : 2.85 KiB (0%)
Title : Forced
Language : Russian
Default : Yes
Forced : Yes

Text #2
ID : 9
Format : UTF-8
Codec ID : S_TEXT/UTF8
Codec ID/Info : UTF-8 Plain Text
Duration : 3 h 5 min
Bit rate : 49 b/s
Count of elements : 2124
Stream size : 67.4 KiB (0%)
Title : Full
Language : Russian
Default : No
Forced : No

Text #3
ID : 10
Format : UTF-8
Codec ID : S_TEXT/UTF8
Codec ID/Info : UTF-8 Plain Text
Duration : 2 h 54 min
Bit rate : 38 b/s
Count of elements : 2035
Stream size : 48.7 KiB (0%)
Title : Full
Language : English
Default : No
Forced : No

Text #4
ID : 11
Format : UTF-8
Codec ID : S_TEXT/UTF8
Codec ID/Info : UTF-8 Plain Text
Duration : 2 h 54 min
Bit rate : 42 b/s
Count of elements : 2287
Stream size : 54.8 KiB (0%)
Title : SDH
Language : English
Default : No
Forced : No

Text #5
ID : 12
Format : UTF-8
Codec ID : S_TEXT/UTF8
Codec ID/Info : UTF-8 Plain Text
Duration : 3 h 5 min
Bit rate : 51 b/s
Count of elements : 2282
Stream size : 70.3 KiB (0%)
Title : SDH Colored
Language : English
Default : No
Forced : No

Menu
00:00:00.000 : en:Chapter 01
00:07:33.035 : en:Chapter 02
00:11:59.802 : en:Chapter 03
00:12:58.819 : en:Chapter 04
00:15:54.995 : en:Chapter 05
00:20:56.546 : en:Chapter 06
00:23:14.935 : en:Chapter 07
00:25:52.300 : en:Chapter 08
00:29:58.880 : en:Chapter 09
00:38:13.416 : en:Chapter 10
00:46:43.467 : en:Chapter 11
00:49:45.941 : en:Chapter 12
00:53:19.154 : en:Chapter 13
00:55:09.848 : en:Chapter 14
00:58:07.484 : en:Chapter 15
01:08:41.826 : en:Chapter 16
01:12:21.962 : en:Chapter 17
01:15:45.332 : en:Chapter 18
01:19:09.786 : en:Chapter 19
01:22:46.461 : en:Chapter 20
01:25:08.978 : en:Chapter 21
01:28:07.198 : en:Chapter 22
01:31:15.011 : en:Chapter 23
01:36:02.381 : en:Chapter 24
01:37:35.516 : en:Chapter 25
01:40:35.029 : en:Chapter 26
01:45:16.143 : en:Chapter 27
01:48:43.725 : en:Chapter 28
01:50:31.207 : en:Chapter 29
01:52:36.166 : en:Chapter 30
01:53:08.072 : en:Chapter 31
01:59:15.982 : en:Chapter 32
02:07:11.123 : en:Chapter 33
02:07:38.442 : en:Chapter 34
02:09:22.296 : en:Chapter 35
02:12:48.335 : en:Chapter 36
02:22:00.470 : en:Chapter 37
02:22:43.054 : en:Chapter 38
02:23:17.547 : en:Chapter 39
02:24:56.020 : en:Chapter 40
02:26:44.712 : en:Chapter 41
02:29:18.449 : en:Chapter 42
02:33:12.516 : en:Chapter 43
02:34:57.246 : en:Chapter 44
02:36:12.780 : en:Chapter 45
02:37:45.581 : en:Chapter 46
02:39:08.455 : en:Chapter 47
02:41:39.564 : en:Chapter 48
02:44:05.627 : en:Chapter 49
02:51:16.599 : en:Chapter 50
02:56:04.845 : en:Chapter 51




Скачать Хоббит: Пустошь Смауга через торрент https://c.radikal.ru/c18/2011/4e/22b51a78720d.jpg Скачать, смотреть онлайн Хоббит: Пустошь Смауга бесплантно в хорошем качестве Описание: После успешного перехода через Туманные горы, Торин и компания вынуждены обратиться за помощью к могучему незнакомцу, прежде чем ... 10 10 5
Info! Золотая раздача, скачанное не засчитывается.
Торрент: Зарегистрирован [2020-11-30 21:49] · скачан: 228 раз
Статус: √ проверено
Размер: 97.23 GB
Как cкачать? Как скачать Хоббит: Пустошь Смауга через торрент | UTorrent

28-11-2019 20:33  


Отключить вcю реклaмy на сайте, в т.ч. и в плеере онлайн просмотра!

    Дорогой пользователь! Огромная просьба, поблагодарите релизера, оцените раздачу и оставьте свои комментарий, если Вы скачали Хоббит: Пустошь Смауга через торрент бесплатно!!
    Комментировать посты могут только пользователи прошедшие не сложную регистрацию
    Показать сообщения:    


    Хоббит: Пустошь Смауга через торрент
    Скачать бесплатно Хоббит: Пустошь Смауга
    Хоббит: Пустошь Смауга скачать торрент
    Хоббит: Пустошь Смауга смотреть онлайн
    Cкачать фильм Хоббит: Пустошь Смауга бесплатно
    Хоббит: Пустошь Смауга скачать торрент в хорошем качестве
    Хоббит: Пустошь Смауга смотреть онлайн бесплатно в хорошем качестве
    Вы не можете начинать темы
    Вы не можете отвечать на сообщения
    Вы не можете редактировать свои сообщения
    Вы не можете удалять свои сообщения
    Вы не можете голосовать в опросах
    Вы не можете прикреплять файлы к сообщениям
    Вы можете скачивать файлы
    Хоббит: Пустошь Смауга / The Hobbit: The Desolation of Smaug [2013, Фэнтези, приключения, UHD BDRemux 2160p] [Расширенная версия] Дубляж [Лицензия] +MVO+2xAVO смотреть онлайн, скачать торрент picoco.icu