2 сезон

iTunes

WEBRip

1

2 сезон

iTunes

1 сезон

1 сезон

RePack

30

Новинка

ВАЖНО

ИГРА 18+

pack

RePack

MK11
pack

Легкие деньги

RePack

jed

RePack

fifa19

RePack

RDR2

RePack

NEED FOR SPEED™ PAYBACK

4 сезон

9 сезон

Бесстыжие 9 сезон

Все сериалы

все сериалы на PB.wtf

RePack

FAR CRY 5

Anonymous, доброй ночи, мы не успеваем собрать деньги на оплату серверов за февраль, помогите нам пожалуйста в это трудное время. В качестве благодарности мы отключим Вам всю рекламу на сайте (укажите свой ник в строку Ваше имя)!

×
  
Magnet ссылка

Казаки. Абсолютно лживая история / Козаки. Абсолютно брехлива історія / Сезон: 1 / Серии: 1-12 из 12 (Александр Березань) [2020, приключения, комедия, WEBRip 720p] [UKR] piratbit.org

Казаки. Абсолютно лживая история через торрент piratbit.org

Раздают: 3 [ 0 KB/s ]
Размер: 11.1 GB | Добавлен: 3 мес. 4 д. назад | Торрент скачан:45 раз
Скачать  

01-12-2020 19:23 Казаки. Абсолютно лживая история Скачать торрент  

Казаки. Абсолютно лживая история / Козаки. Абсолютно брехлива історія
Год выпуска: 2020
Страна: Украина
Жанр: приключения, комедия
Продолжительность: 12х~ 00:45:00
Перевод: Украинский, но также присутствует русский, польский и турецкий

Режиссер: Александр Березань

В ролях: Юрий Дьяк, Андрей Исаенко, Мила Сивацкая, Михаил Гаврилов, Остап Ступка, Михаил Кукуюк Воспитанный шляхтичем простой крестьянский парень Иван успешно осуществляет ограбление московского царя. Его цель - украсть драгоценности, чтобы выкупить свою мать из турецкого плена. Впрочем, осуществить план не так просто - ведь оказывается, что он украл магическую сережку, которая является залогом непобедимости московских властей. Ивану не удается ее уберечь. Сокровище попадает на Сечь и оказывается в недостижимых месте - в ухе Кошевого...



Качество: WEBRip 720p
Формат: MKV
Видео: AVC, 1280x720, 25 fps, 3 000 kb/s
Аудио: 48 kHz, AAC, 2 ch, ~128 kbps
General
Unique ID : 171578472138064859140847411339457900051 (0x8114CFCD8E6D150A08226DB87896AE13)
Complete name : G:\Kozaky. Absolyutno brekhlyva istoriya 720p WEBRip\Козаки. Абсолютно брехлива історія.S01E01.720p.WEBRip-mazepa.mkv
Format : Matroska
Format version : Version 4
File size : 923 MiB
Duration : 42 min 20 s
Overall bit rate : 3 047 kb/s
Movie name : rip by mazepa.to
Encoded date : UTC 2020-11-25 12:26:03
Writing application : mkvmerge v51.0.0 ('I Wish') 64-bit
Writing library : libebml v1.4.0 + libmatroska v1.6.2

Video
ID : 1
Format : AVC
Format/Info : Advanced Video Codec
Format profile : High@L3.1
Format settings : CABAC / 5 Ref Frames
Format settings, CABAC : Yes
Format settings, Reference : 5 frames
Codec ID : V_MPEG4/ISO/AVC
Duration : 42 min 20 s
Bit rate : 2 916 kb/s
Width : 1 280 pixels
Height : 720 pixels
Display aspect ratio : 16:9
Frame rate mode : Constant
Frame rate : 25.000 FPS
Color space : YUV
Chroma subsampling : 4:2:0
Bit depth : 8 bits
Scan type : Progressive
Bits/(Pixel*Frame) : 0.127
Stream size : 883 MiB (96%)
Writing library : x264 core 160
Encoding settings : cabac=1 / ref=5 / deblock=1:0:0 / analyse=0x3:0x113 / me=umh / subme=8 / psy=1 / psy_rd=1.00:0.00 / mixed_ref=1 / me_range=16 / chroma_me=1 / trellis=1 / 8x8dct=1 / cqm=0 / deadzone=21,11 / fast_pskip=1 / chroma_qp_offset=-2 / threads=22 / lookahead_threads=3 / sliced_threads=0 / nr=0 / decimate=1 / interlaced=0 / bluray_compat=0 / constrained_intra=0 / bframes=3 / b_pyramid=2 / b_adapt=2 / b_bias=0 / direct=3 / weightb=1 / open_gop=0 / weightp=2 / keyint=250 / keyint_min=25 / scenecut=40 / intra_refresh=0 / rc_lookahead=50 / rc=crf / mbtree=1 / crf=20.0 / qcomp=0.60 / qpmin=5 / qpmax=69 / qpstep=4 / ip_ratio=1.41 / aq=1:1.00
Language : Ukrainian
Default : Yes
Forced : No

Audio
ID : 2
Format : AAC LC
Format/Info : Advanced Audio Codec Low Complexity
Codec ID : A_AAC-2
Duration : 42 min 20 s
Bit rate : 128 kb/s
Channel(s) : 2 channels
Channel layout : L R
Sampling rate : 48.0 kHz
Frame rate : 46.875 FPS (1024 SPF)
Compression mode : Lossy
Delay relative to video : -43 ms
Stream size : 38.8 MiB (4%)
Language : Ukrainian
Default : Yes
Forced : No

скриншот   скриншот   скриншот  
piratbit.org



Скачать Казаки. Абсолютно лживая история через торрент https://i114.fastpic.ru/big/2020/1201/59/fe4cdc1649df27e6474da7b8e59b3059.jpg Скачать фильм Казаки. Абсолютно лживая история через торрент бесплантно в хорошем качестве В ролях: Юрий Дьяк, Андрей Исаенко, Мила Сивацкая, Михаил Гаврилов, Остап Ступка, Михаил Кукуюк Воспитанный шляхтичем простой крестьянский ... 6.6 10 8
Торрент: Зарегистрирован [2020-12-01 19:23] · скачан: 45 раз
Статус: √ проверено
Размер: 11.1 GB
Как cкачать? Как скачать Казаки. Абсолютно лживая история через торрент | UTorrent

28-11-2019 20:33  

Отключить всю рекламу на сайте

    Дорогой пользователь! Огромная просьба, поблагодарите релизера, оцените раздачу и оставьте свои комментарий, если Вы скачали Казаки. Абсолютно лживая история через торрент бесплатно! Внесите свою лепту в развитие PiratBit!
    Комментировать посты могут только пользователи прошедшие не сложную регистрацию
    Показать сообщения:    

    Казаки. Абсолютно лживая история через торрент
    Скачать бесплатно Казаки. Абсолютно лживая история
    Казаки. Абсолютно лживая история скачать торрент
    Казаки. Абсолютно лживая история смотреть онлайн
    Cкачать фильм Казаки. Абсолютно лживая история бесплатно
    Казаки. Абсолютно лживая история скачать торрент в хорошем качестве
    Казаки. Абсолютно лживая история смотреть онлайн бесплатно в хорошем качестве


    Вы не можете начинать темы
    Вы не можете отвечать на сообщения
    Вы не можете редактировать свои сообщения
    Вы не можете удалять свои сообщения
    Вы не можете голосовать в опросах
    Вы не можете прикреплять файлы к сообщениям
    Вы можете скачивать файлы