Достать ножи: Стеклянная луковица

MVO

Добыча

Дубляж

Уэнсдэй

1 сезон

Тор

Дубляж

13 клиническая

1 сезон

Жестокая ночь

MVO

Одни из нас

1 сезон

Deluxe

pack

Рекомендуем

30

Пиратка

ВАЖНО

ВАЖНО

Ghostwire

Пиратка

jed

RePack

nioh2

RePack

RDR2

RePack

NEED FOR SPEED™ PAYBACK

RePack

скачать торрент

Кинопоиск HD

Острые козырьки 6 сезон

6 сезон

FAR CRY 6

RePack

скачать торрент

Лицензия

скачать торрент

MVO

1

1 сезон

скачать торрент

1 сезон

скачать торрент

Лицензия

  

Колдовство: Новый ритуал / The Craft: Legacy (Зои Листер Джонс) [2020, Ужасы, фэнтези, драма, UHD WEB-DL 2160p] Дубляж [iTunes]

Колдовство: Новый ритуал через торрент piratbit.org

Размер: 10.24 GB | Добавлен: 2 года 2 мес. назад | Торрент скачан:88 раз
Смотреть онлайн | Скачать | Поддержите нас   

03-12-2020 15:51 Колдовство: Новый ритуал Скачать торрент  

Колдовство: Новый ритуал | The Craft: Legacy
Год выпуска: 2020
Страна: США, Канада
Студия: Blumhouse Productions, Columbia Pictures, Red Wagon Entertainment
Жанр: Ужасы, фэнтези, драма
Продолжительность: 01:34:22
Перевод: Дублированный | iTunes
Субтитры: Русские (Full), английские

Режиссер: Зои Листер Джонс

rating

В ролях: Кэйли Спэни, Гидеон Адлон, Лови Симон, Зои Луна, Мишель Монахэн, Дэвид Духовны, Николас Голицын, Дональд Маклин мл., Чарльз Вандерваарт, Джулиан Грэй

Описание: Новенькую старшеклассницу принимает в свою компанию группа из трёх девчонок и вскоре посвящает её в ведьмы.

Качество: UHD WEB-DL 2160p
Формат: MKV

Видео: 3840x2160 at 23.976 fps, MPEG-H HEVC HDR Video, 14500 kbps avg
Аудио #01: 48 kHz, AC3, 5.1, 384 Kbps | iTunes | RUS |
Аудио #02: 48 kHz, E-AC3, 5.1, 640 Kbps | Оригинал | ENG |
скриншот  скриншот  скриншот  скриншот  скриншот  

General
Unique ID : 105521245804241191999078705130174913302 (0x4F62A717C34ED4A2DC691CAFDFAF9B16)
Complete name : F:Video111The.Craft.Legacy.2020.AMZN.WEB-DL.2160p.HDR.seleZen.mkv
Format : Matroska
Format version : Version 4
File size : 10.2 GiB
Duration : 1 h 34 min
Overall bit rate : 15.5 Mb/s
Movie name : The Craft Legacy 2020 from seleZen
Encoded date : UTC 2020-12-03 14:55:34
Writing application : mkvmerge v40.0.0 ('Old Town Road + Pony') 64-bit
Writing library : libebml v1.3.9 + libmatroska v1.5.2

Video
ID : 1
Format : HEVC
Format/Info : High Efficiency Video Coding
Format profile : Main 10@L5@Main
Codec ID : V_MPEGH/ISO/HEVC
Duration : 1 h 34 min
Bit rate : 14.5 Mb/s
Width : 3 840 pixels
Height : 2 160 pixels
Display aspect ratio : 16:9
Frame rate mode : Constant
Frame rate : 23.976 (24000/1001) FPS
Color space : YUV
Chroma subsampling : 4:2:0 (Type 2)
Bit depth : 10 bits
Bits/(Pixel*Frame) : 0.073
Stream size : 9.56 GiB (93%)
Language : English
Default : Yes
Forced : No
Color range : Limited
Color primaries : BT.2020
Transfer characteristics : PQ
Matrix coefficients : BT.2020 non-constant
Maximum Content Light Level : 1574 cd/m2
Maximum Frame-Average Light : 364 cd/m2

Audio #1
ID : 2
Format : AC-3
Format/Info : Audio Coding 3
Commercial name : Dolby Digital
Codec ID : A_AC3
Duration : 1 h 34 min
Bit rate mode : Constant
Bit rate : 384 kb/s
Channel(s) : 6 channels
Channel layout : L R C LFE Ls Rs
Sampling rate : 48.0 kHz
Frame rate : 31.250 FPS (1536 SPF)
Compression mode : Lossy
Stream size : 259 MiB (2%)
Title : iTunes
Language : Russian
Service kind : Complete Main
Default : Yes
Forced : Yes

Audio #2
ID : 3
Format : E-AC-3
Format/Info : Enhanced AC-3
Commercial name : Dolby Digital Plus
Codec ID : A_EAC3
Duration : 1 h 34 min
Bit rate mode : Constant
Bit rate : 640 kb/s
Channel(s) : 6 channels
Channel layout : L R C LFE Ls Rs
Sampling rate : 48.0 kHz
Frame rate : 31.250 FPS (1536 SPF)
Compression mode : Lossy
Stream size : 432 MiB (4%)
Title : Original
Language : English
Service kind : Complete Main
Default : No
Forced : No

Text #1
ID : 4
Format : UTF-8
Codec ID : S_TEXT/UTF8
Codec ID/Info : UTF-8 Plain Text
Duration : 1 h 33 min
Bit rate : 75 b/s
Count of elements : 1021
Stream size : 51.8 KiB (0%)
Title : Full
Language : Russian
Default : No
Forced : No

Text #2
ID : 5
Format : UTF-8
Codec ID : S_TEXT/UTF8
Codec ID/Info : UTF-8 Plain Text
Duration : 1 h 24 min
Bit rate : 48 b/s
Count of elements : 1168
Stream size : 29.8 KiB (0%)
Title : Full
Language : English
Default : No
Forced : No

Text #3
ID : 6
Format : UTF-8
Codec ID : S_TEXT/UTF8
Codec ID/Info : UTF-8 Plain Text
Duration : 1 h 31 min
Bit rate : 54 b/s
Count of elements : 1408
Stream size : 36.1 KiB (0%)
Title : SDH
Language : English
Default : No
Forced : No




Скачать Колдовство: Новый ритуал через торрент https://d.radikal.ru/d17/2012/8f/a6271dead69e.jpg Скачать, смотреть онлайн Колдовство: Новый ритуал бесплантно в хорошем качестве Описание: Новенькую старшеклассницу принимает в свою компанию группа из трёх девчонок и вскоре посвящает её в ... 10 10 4
Торрент: Зарегистрирован [2020-12-03 15:51] · скачан: 88 раз
Статус: √ проверено
Размер: 10.24 GB
Как cкачать? Как скачать Колдовство: Новый ритуал через торрент | UTorrent

% Раздел Тема Автор DL S | L
Фильмы 2019-2020 [DVDrip, WEB-DLRip, HDrip] (DUB, MVO) [ 2.05 GB ] Колдовство: Новый ритуал / The Craft: Legacy | Лицензия | HDRip-AVC Lithuania Скачать
1 | 0
Фильмы (Blu-ray, BD-Remux, HDDVD) [ 18.98 GB ] Колдовство: Новый ритуал / The Craft: Legacy | iTunes | BD Remux 1080p bober100 Скачать
1 | 0
Фильмы [HD 720p, 1080p] (Хороший звук DUB, MVO) [ 9.32 GB ] Колдовство: Новый ритуал / The Craft: Legacy | iTunes | 1080p bober100 Скачать
1 | 0
Фильмы 2019-2020 [DVDrip, WEB-DLRip, HDrip] (DUB, MVO) [ 1.46 GB ] Колдовство: Новый ритуал / The Craft: Legacy | Лицензия | BDRip Twi7ter Скачать
4 | 1
Фильмы 2019-2020 [DVDrip, WEB-DLRip, HDrip] (DUB, MVO) [ 1.42 GB ] Колдовство: Новый ритуал / The Craft: Legacy | iTunes | BDRip bober100 Скачать
1 | 0
Фильмы (WEB-DL 720p, 1080p) [ 2.41 GB ] Колдовство: Новый ритуал / The Craft: Legacy | iTunes | 720p bober100 Скачать
1 | 0
Фильмы (WEB-DL 720p, 1080p) [ 5.82 GB ] Колдовство: Новый ритуал / The Craft: Legacy | iTunes | 1080p bober100 Скачать
1 | 0

28-11-2019 20:33  


Отключить вcю реклaмy на сайте, в т.ч. и в плеере онлайн просмотра!

    Дорогой пользователь! Огромная просьба, поблагодарите релизера, оцените раздачу и оставьте свои комментарий, если Вы скачали Колдовство: Новый ритуал через торрент бесплатно!!
    Комментировать посты могут только пользователи прошедшие не сложную регистрацию
    Показать сообщения:    


    Колдовство: Новый ритуал через торрент
    Скачать бесплатно Колдовство: Новый ритуал
    Колдовство: Новый ритуал скачать торрент
    Колдовство: Новый ритуал смотреть онлайн
    Cкачать фильм Колдовство: Новый ритуал бесплатно
    Колдовство: Новый ритуал скачать торрент в хорошем качестве
    Колдовство: Новый ритуал смотреть онлайн бесплатно в хорошем качестве
    Вы не можете начинать темы
    Вы не можете отвечать на сообщения
    Вы не можете редактировать свои сообщения
    Вы не можете удалять свои сообщения
    Вы не можете голосовать в опросах
    Вы не можете прикреплять файлы к сообщениям
    Вы можете скачивать файлы
    Колдовство: Новый ритуал / The Craft: Legacy [2020, Ужасы, фэнтези, драма, UHD WEB-DL 2160p] Дубляж [iTunes] смотреть онлайн, скачать торрент picoco.icu