Достать ножи: Стеклянная луковица

MVO

Добыча

Дубляж

Уэнсдэй

1 сезон

Тор

Дубляж

13 клиническая

1 сезон

Жестокая ночь

MVO

Одни из нас

1 сезон

Deluxe

pack

Рекомендуем

30

Пиратка

ВАЖНО

ВАЖНО

Ghostwire

Пиратка

jed

RePack

nioh2

RePack

RDR2

RePack

NEED FOR SPEED™ PAYBACK

RePack

скачать торрент

Кинопоиск HD

Острые козырьки 6 сезон

6 сезон

FAR CRY 6

RePack

скачать торрент

Лицензия

скачать торрент

MVO

1

1 сезон

скачать торрент

1 сезон

скачать торрент

Лицензия

  

Довод / Tenet (Кристофер Нолан) [2020, Фантастика, боевик, UHD BDRemux 2160p, (IMAX Edition)] Дубляж (rus, ukr) [iTunes]

Довод через торрент piratbit.org

Раздают: 1 [ 0 KB/s ]
Размер: 65.1 GB | Добавлен: 2 года 1 мес. назад | Торрент скачан:449 раз
Смотреть онлайн | Скачать | Поддержите нас   

05-12-2020 17:52 Довод Скачать торрент  

Довод | Tenet
Год выпуска: 2020
Страна: Великобритания, США
Выпущено: Syncopy, Warner Bros.
Жанр: Фантастика, боевик
Продолжительность: 02:30:08
Перевод: Дублированный | iTunes
Субтитры: Русские (Forced, full), украинские (Forced), английские

Режиссер: Кристофер Нолан

rating

В ролях: Джон Дэвид Вашингтон, Роберт Паттинсон, Элизабет Дебики, Кеннет Брана, Аарон Тейлор-Джонсон, Клеманс Поэзи, Фиона Дуриф, Майкл Кейн, Химеш Патель, Эндрю Ховард, Уэс Чэтэм, Юрий Колокольников, Димпл Кападиа

Описание: После теракта в Национальной Опере Украины агент ЦРУ объединяется с британской разведкой, чтобы противостоять русскому олигарху, который сколотил состояние на торговле оружием. Вооруженный единственным словом - Тенет (довод) главный герой борется за выживание всего мира. Он путешествует по окутанному сумерками миру международного шпионажа с единственной миссией, которая развернется за пределами реального времени. Это не путешествие сквозь время. Это инверсия.

Качество: UHD BDRemux 2160p | IMAX Edition
Формат: MKV

Видео: 3840x2160 at 23.976 fps, MPEG-H HEVC HDR Video, ~ 57500 kbps avg
Аудио #01: 48 kHz, AC3, 5.1, 384 Kbps | iTunes | RUS |
Аудио #02: 48 kHz, AC3, 2.0, 192 Kbps | iTunes | UKR |
Аудио #03: 48 kHz, DTS-HD MA, 5.1, 4036 Kbps | Оригинал | ENG |
скриншот  скриншот  скриншот  скриншот  скриншот  

General
Unique ID : 113713614778274056460274001770736221658 (0x558C72117067C11A5E0B3571013F7DDA)
Complete name : E:VideoFirstTenet.2020.BDREMUX.2160p.HDR.seleZen.mkv
Format : Matroska
Format version : Version 4
File size : 65.1 GiB
Duration : 2 h 30 min
Overall bit rate mode : Variable
Overall bit rate : 62.1 Mb/s
Movie name : Tenet 2020 4K UHD from seleZen
Encoded date : UTC 2020-12-14 19:57:54
Writing application : mkvmerge v40.0.0 ('Old Town Road + Pony') 64-bit
Writing library : libebml v1.3.9 + libmatroska v1.5.2

Video
ID : 1
Format : HEVC
Format/Info : High Efficiency Video Coding
Format profile : Main 10@L5.1@High
HDR format : SMPTE ST 2086, HDR10 compatible
Codec ID : V_MPEGH/ISO/HEVC
Duration : 2 h 30 min
Bit rate : 57.5 Mb/s
Width : 3 840 pixels
Height : 2 160 pixels
Display aspect ratio : 16:9
Frame rate mode : Constant
Frame rate : 23.976 (24000/1001) FPS
Color space : YUV
Chroma subsampling : 4:2:0 (Type 2)
Bit depth : 10 bits
Bits/(Pixel*Frame) : 0.289
Stream size : 60.3 GiB (93%)
Language : English
Default : Yes
Forced : No
Color range : Limited
Color primaries : BT.2020
Transfer characteristics : PQ
Matrix coefficients : BT.2020 non-constant
Mastering display color pri : Display P3
Mastering display luminance : min: 0.0050 cd/m2, max: 4000 cd/m2
Maximum Content Light Level : 349 cd/m2
Maximum Frame-Average Light : 86 cd/m2

Audio #1
ID : 2
Format : AC-3
Format/Info : Audio Coding 3
Commercial name : Dolby Digital
Codec ID : A_AC3
Duration : 2 h 30 min
Bit rate mode : Constant
Bit rate : 384 kb/s
Channel(s) : 6 channels
Channel layout : L R C LFE Ls Rs
Sampling rate : 48.0 kHz
Frame rate : 31.250 FPS (1536 SPF)
Compression mode : Lossy
Stream size : 412 MiB (1%)
Title : iTunes
Language : Russian
Service kind : Complete Main
Default : Yes
Forced : Yes

Audio #2
ID : 3
Format : AC-3
Format/Info : Audio Coding 3
Commercial name : Dolby Digital
Codec ID : A_AC3
Duration : 2 h 30 min
Bit rate mode : Constant
Bit rate : 192 kb/s
Channel(s) : 2 channels
Channel layout : L R
Sampling rate : 48.0 kHz
Frame rate : 31.250 FPS (1536 SPF)
Compression mode : Lossy
Stream size : 206 MiB (0%)
Title : iTunes
Language : Ukrainian
Service kind : Complete Main
Default : No
Forced : No

Audio #3
ID : 4
Format : DTS XLL
Format/Info : Digital Theater Systems
Commercial name : DTS-HD Master Audio
Codec ID : A_DTS
Duration : 2 h 30 min
Bit rate mode : Variable
Bit rate : 4 036 kb/s
Channel(s) : 6 channels
Channel layout : C L R Ls Rs LFE
Sampling rate : 48.0 kHz
Frame rate : 93.750 FPS (512 SPF)
Bit depth : 24 bits
Compression mode : Lossless
Stream size : 4.23 GiB (7%)
Title : Original
Language : English
Default : No
Forced : No

Text #1
ID : 5
Format : UTF-8
Codec ID : S_TEXT/UTF8
Codec ID/Info : UTF-8 Plain Text
Duration : 2 h 27 min
Bit rate : 0 b/s
Count of elements : 28
Stream size : 811 Bytes (0%)
Title : Forced
Language : Russian
Default : Yes
Forced : Yes

Text #2
ID : 6
Format : UTF-8
Codec ID : S_TEXT/UTF8
Codec ID/Info : UTF-8 Plain Text
Duration : 2 h 28 min
Bit rate : 90 b/s
Count of elements : 1854
Stream size : 98.8 KiB (0%)
Title : Full
Language : Russian
Default : No
Forced : No

Text #3
ID : 7
Format : UTF-8
Codec ID : S_TEXT/UTF8
Codec ID/Info : UTF-8 Plain Text
Duration : 2 h 16 min
Bit rate : 0 b/s
Count of elements : 24
Stream size : 731 Bytes (0%)
Title : Forced
Language : Ukrainian
Default : No
Forced : No

Text #4
ID : 8
Format : UTF-8
Codec ID : S_TEXT/UTF8
Codec ID/Info : UTF-8 Plain Text
Duration : 2 h 22 min
Bit rate : 52 b/s
Count of elements : 1840
Stream size : 55.4 KiB (0%)
Title : Full
Language : English
Default : No
Forced : No

Text #5
ID : 9
Format : UTF-8
Codec ID : S_TEXT/UTF8
Codec ID/Info : UTF-8 Plain Text
Duration : 2 h 26 min
Bit rate : 59 b/s
Count of elements : 2141
Stream size : 64.0 KiB (0%)
Title : SDH
Language : English
Default : No
Forced : No

Menu
00:00:00.000 : en:Chapter 01
00:09:39.412 : en:Chapter 02
00:19:30.502 : en:Chapter 03
00:28:18.405 : en:Chapter 04
00:38:49.368 : en:Chapter 05
00:49:20.165 : en:Chapter 06
01:00:33.254 : en:Chapter 07
01:09:41.510 : en:Chapter 08
01:22:36.409 : en:Chapter 09
01:30:54.740 : en:Chapter 10
01:39:40.683 : en:Chapter 11
01:51:02.322 : en:Chapter 12
01:59:40.798 : en:Chapter 13
02:11:42.853 : en:Chapter 14
02:19:07.088 : en:Chapter 15




Скачать Довод через торрент https://st-kp-yandex-net.translate.goog/images/film_iphone/iphone360_1236063.jpg Скачать, смотреть онлайн Довод бесплантно в хорошем качестве Описание: После теракта в Национальной Опере Украины агент ЦРУ объединяется с британской разведкой, чтобы противостоять русскому олигарху, ... 9.5 10 20
Info! Золотая раздача, скачанное не засчитывается.
Торрент: Зарегистрирован [2020-12-14 20:10] · скачан: 449 раз
Статус: √ проверено
Размер: 65.1 GB
Как cкачать? Как скачать Довод через торрент | UTorrent

% Раздел Тема Автор DL S | L
Фильмы (HD 720p, 1080p) (48-60 fps) [ 6.9 GB ] Довод / Tenet | iTunes | 720p / 60 FPS, (IMAX Edition slaventi-69 Скачать
1 | 0
Фильмы 2019-2020 [DVDrip, WEB-DLRip, HDrip] (DUB, MVO) [ 2.06 GB ] Довод / Tenet | iTunes | HDRip-AVC Lithuania Скачать
6 | 0
Фильмы [HD 720p, 1080p] (Хороший звук DUB, MVO) [ 8.62 GB ] Довод / Tenet | iTunes | 720p, (IMAX Edition bober100 Скачать
2 | 0
Фильмы 2019-2020 [DVDrip, WEB-DLRip, HDrip] (DUB, MVO) [ 1.46 GB ] Довод / Tenet | Лицензия | BDRip Twi7ter Скачать
29 | 0
Фильмы с авторской озвучкой [ 2.17 GB ] Довод / Tenet | AVO | BDRip killermax2013 Скачать
1 | 0
Фильмы [HD 720p, 1080p] (Хороший звук DUB, MVO) [ 19.79 GB ] Довод / Tenet | iTunes | 1080p, (IMAX Edition bober100 Скачать
3 | 0
Фильмы (Blu-ray, BD-Remux, HDDVD) [ 36.09 GB ] Довод / Tenet | iTunes | BD Remux 1080p, (IMAX Edition bober100 Скачать
1 | 0



Последний раз редактировалось: bober100 (2020-12-14 20:14), всего редактировалось 2 раз(а)

28-11-2019 20:33  


Отключить вcю реклaмy на сайте, в т.ч. и в плеере онлайн просмотра!

17-12-2020 17:43 Довод Скачать торрент  

Бредятина с явным оттенком BLM. Негр спасает мир..



25-01-2021 21:43 Довод Скачать торрент  

Занадто надуманий фільм. 5/10



30-01-2021 07:38 Довод Скачать торрент  

Gutto писал(а):

Бредятина с явным оттенком BLM. Негр спасает мир..

Т.е. когда белый спасает всё норм?



24-02-2021 08:30 Довод Скачать торрент  

Gutto писал(а):

Бредятина с явным оттенком BLM. Негр спасает мир..

Мне вот вообще по барабану кто спасает мир, главное чтобы фильм смотрелся.



    Дорогой пользователь! Огромная просьба, поблагодарите релизера, оцените раздачу и оставьте свои комментарий, если Вы скачали Довод через торрент бесплатно!!
    Комментировать посты могут только пользователи прошедшие не сложную регистрацию
    Показать сообщения:    


    Довод через торрент
    Скачать бесплатно Довод
    Довод скачать торрент
    Довод смотреть онлайн
    Cкачать фильм Довод бесплатно
    Довод скачать торрент в хорошем качестве
    Довод смотреть онлайн бесплатно в хорошем качестве
    Вы не можете начинать темы
    Вы не можете отвечать на сообщения
    Вы не можете редактировать свои сообщения
    Вы не можете удалять свои сообщения
    Вы не можете голосовать в опросах
    Вы не можете прикреплять файлы к сообщениям
    Вы можете скачивать файлы
    Довод / Tenet [2020, Фантастика, боевик, UHD BDRemux 2160p, ] Дубляж [iTunes] смотреть онлайн, скачать торрент picoco.icu