Лицензия

MVO

1

1 сезон

Лицензия

Лицензия

13

MVO

1 сезон

Deluxe Edition

pack

Рекомендуем

30

Repack

ВАЖНО

ВАЖНО

Ghostwire

RePack

jed

RePack

fifa19

RePack

RDR2

RePack

NEED FOR SPEED™ PAYBACK

RePack

Кинопоиск HD

 Острые козырьки 6 сезон

6 сезон

FAR CRY 6

RePack

Лицензия

MVO

1

1 сезон

1 сезон

Лицензия

  

Особо опасные... (Суламбек Мамилов) [1979 г., детектив, экранизация, DVDRip-AVC]

Особо опасные... через торрент piratbit.org

Раздают: 1 [ 0 KB/s ]
Размер: 1.59 GB | Добавлен: 1 год 9 мес. назад | Торрент скачан:44 раза
Смотреть онлайн Особо опасные... | Скачать   

06-12-2020 15:12 Особо опасные... Скачать торрент  

Особо опасные...

Год выпуска: 1979 (Премьера апрель 1980)
Страна: СССР | Одесская киностудия
Жанр: детектив, экранизация
Продолжительность: 01:21:16
Перевод: не требуется

Режиссер: Суламбек Мамилов

В ролях: Виктор Жиганов, Николай Сектименко, Анатолий Скорякин, Владимир Вихров, Евгений Стежко, Борис Невзоров, Татьяна Друбич, Лев Дуров, Зиновий Гердт, Елена Ивочкина, Борис Гусаков, Тимофей Спивак, Михаил Водяной, Валентин Букин

Описание: По мотивам повести Юлия Файбышенко "Розовый куст". Действие происходит в 1920-е годы в южном городе, в период новой экономической политики. Убит известный доктор и его жена, похищен живущий напротив ювелир. Бандиты искали золото. Затем происходит диверсия на заводе. Чекисты узнают, что во всём замешан человек, выдающий себя за коммерсанта Беспалого, он же поручик Воронов, он же "Чалый".

rating

Файл
Формат: MKV
Кодек: x264
Качество: DVDRip-AVC (DVD5)
Видео: MPEG-4 AVC, 696x574@742x574, 25.000 fps, 2342 kbps, 0.235 bit/pixel
Аудио #1: Русский, AC3, 6 chnls, 448 kbps
Аудио #2: Русский, AC3, 2 chnls, 192 kbps | Отдельно
x264 [info]: frame I:641 Avg QP:16.16 size: 54320
x264 [info]: frame P:26082 Avg QP:17.95 size: 27969
x264 [info]: frame B:95201 Avg QP:19.80 size: 6969
x264 [info]: consecutive B-frames: 1.7% 2.8% 7.3% 15.3% 22.3% 38.7% 7.9% 2.3% 0.9% 0.4% 0.1% 0.1% 0.0%
Format : Matroska
Format version : Version 4
File size : 1.59 GiB
Duration : 1 h 21 min
Overall bit rate : 2 794 kb/s
Movie name : Особо опасные... (1979) - Rip by -{am}-
Encoded date : UTC 2020-11-29 22:15:29
Writing application : mkvmerge v7.2.0 ('On Every Street') 32bit built on Sep 13 2014 15:42:11
Writing library : libebml v1.3.0 + libmatroska v1.4.1
Attachments : poster.png

Video
ID : 1
Format : AVC
Format/Info : Advanced Video Codec
Format profile : High@L4.1
Format settings : CABAC / 16 Ref Frames
Format settings, CABAC : Yes
Format settings, Reference : 16 frames
Codec ID : V_MPEG4/ISO/AVC
Duration : 1 h 21 min
Bit rate : 2 342 kb/s
Width : 696 pixels
Height : 574 pixels
Display aspect ratio : 1.293
Frame rate mode : Constant
Frame rate : 25.000 FPS
Color space : YUV
Chroma subsampling : 4:2:0
Bit depth : 8 bits
Scan type : Progressive
Bits/(Pixel*Frame) : 0.235
Stream size : 1.33 GiB (84%)
Title : Osobo.opasnye.1979.{am}.742.Rus
Writing library : x264 core 161 r3027+53 2464769 t_mod_New [(8 & 10)-bit@all X86_64]
Encoding settings : cabac=1 / ref=16 / deblock=1:-3:-2 / analyse=0x3:0x113 / me=umh / subme=11 / psy=1 / fade_compensate=0.00 / psy_rd=1.05:0.10 / mixed_ref=1 / me_range=48 / chroma_me=1 / trellis=2 / 8x8dct=1 / cqm=2 / deadzone=21,11 / fast_pskip=0 / chroma_qp_offset=-5 / threads=18 / lookahead_threads=4 / sliced_threads=0 / nr=0 / decimate=0 / interlaced=0 / bluray_compat=0 / constrained_intra=0 / fgo=0 / bframes=12 / b_pyramid=2 / b_adapt=2 / b_bias=0 / direct=3 / weightb=1 / open_gop=0 / weightp=2 / keyint=250 / keyint_min=25 / scenecut=40 / intra_refresh=0 / rc_lookahead=40 / rc=crf / mbtree=0 / crf=19.0000 / qcomp=0.60 / qpmin=0:0:0 / qpmax=30:30:30 / qpstep=4 / vbv_maxrate=50000 / vbv_bufsize=62500 / crf_max=30.0 / nal_hrd=none / filler=0 / ip_ratio=1.40 / pb_ratio=1.30 / aq=3:1.00 / aq-sensitivity=10.00 / aq-factor=1.00:1.00:1.00 / aq2=0 / aq3=0
Language : Russian
Default : Yes
Forced : No

Audio
ID : 2
Format : AC-3
Format/Info : Audio Coding 3
Commercial name : Dolby Digital
Codec ID : A_AC3
Duration : 1 h 21 min
Bit rate mode : Constant
Bit rate : 448 kb/s
Channel(s) : 6 channels
Channel layout : L R C LFE Ls Rs
Sampling rate : 48.0 kHz
Frame rate : 31.250 FPS (1536 SPF)
Compression mode : Lossy
Stream size : 260 MiB (16%)
Language : Russian
Service kind : Complete Main
Default : Yes
Forced : No

Menu
00:00:00.000 : :Глава 1
00:13:00.080 : :Глава 2
00:21:07.680 : :Глава 3
00:33:56.720 : :Глава 4
00:40:10.520 : :Глава 5
00:49:38.840 : :Глава 6
01:01:14.720 : :Глава 7
01:08:47.840 : :Глава 8
скриншот  скриншот  скриншот  скриншот  

скриншот  скриншот  скриншот  скриншот  

скриншот  скриншот  скриншот  скриншот  



Скачать Особо опасные... через торрент https://img11.lostpic.net/2020/12/06/11ca1549a87074f081c946f401891b4f.th.png Скачать, смотреть онлайн Особо опасные... бесплантно в хорошем качестве Описание: По мотивам повести Юлия Файбышенко "Розовый куст". Действие происходит в 1920-е годы в южном городе, в период новой экономической ... 10 10 3
Торрент: Зарегистрирован [2020-12-06 15:12] · скачан: 44 раз
Статус: √ проверено
Размер: 1.59 GB
Как cкачать? Как скачать Особо опасные... через торрент | UTorrent

28-11-2019 20:33  

Отключить вcю реклaмy на сайте

    Дорогой пользователь! Огромная просьба, поблагодарите релизера, оцените раздачу и оставьте свои комментарий, если Вы скачали Особо опасные... через торрент бесплатно!!
    Комментировать посты могут только пользователи прошедшие не сложную регистрацию
    Показать сообщения:    


    Особо опасные... через торрент
    Скачать бесплатно Особо опасные...
    Особо опасные... скачать торрент
    Особо опасные... смотреть онлайн
    Cкачать фильм Особо опасные... бесплатно
    Особо опасные... скачать торрент в хорошем качестве
    Особо опасные... смотреть онлайн бесплатно в хорошем качестве
    Вы не можете начинать темы
    Вы не можете отвечать на сообщения
    Вы не можете редактировать свои сообщения
    Вы не можете удалять свои сообщения
    Вы не можете голосовать в опросах
    Вы не можете прикреплять файлы к сообщениям
    Вы можете скачивать файлы