1 сезон

1 сезон

iTunes

1

КиноПоиск HD

Кинопоиск HD

iTunes

13

1 сезон

RePack

30

Новинка

ВАЖНО

ИГРА 18+

pack

RePack

MK11
pack

Легкие деньги

RePack

jed

RePack

fifa19

RePack

RDR2

RePack

NEED FOR SPEED™ PAYBACK

4 сезон

9 сезон

Бесстыжие 9 сезон

Все сериалы

все сериалы на PB.wtf

RePack

FAR CRY 5
  
Magnet ссылка

Бесстыжие / Бесстыдники / Shameless (US) / Сезон: 11 / Серии: 1-10 из 12 (Марк Майлод, Джон Уэллс, Мими Ледер, Санаа Хамри, Питер Сигал) [2020, драма, комедия, WEB-DLRip-AVC] MVO [AlexFilm] от MediaBit piratbit.org

Бесстыжие через торрент piratbit.org

Раздают: 5 [ 0 KB/s ] Качают: 6 [ 0 KB/s ]
Размер: 9.91 GB | Добавлен: 2 д. 17 ч. назад | Торрент скачан:5 раз
Скачать  

09-12-2020 20:13 Бесстыжие Скачать торрент  


Бесстыжие / Бесстыдники / Shameless (US)
Информация о фильме:
Название: Бесстыжие / Бесстыдники
Оригинальное название: Shameless (US)
Год выхода: 2020
Жанр: драма, комедия
Режиссер: Марк Майлод, Джон Уэллс, Мими Ледер, Санаа Хамри

В ролях: Уильям Х. Мэйси, Камерон Монахэн, Джереми Аллен Уайт, Эмма Кинни, Итэн Каткоски, Блейк Александр Джонсон, Бреннан Кэйн Джонсон, Шанола Хэмптон, Стив Хоуи, Джоан Кьюсак, Ноэль Фишер, Эмма Гринвелл, Джэйк Макдорман и др.

Описание: Американский ремейк британского сериала, повествующий о взбалмошной многодетной семье Галлахеров и их соседях, которые веселятся, попадают в самые невероятные ситуации, зайдите к ним в гости, и вас заботливо накормят позавчерашними макаронами, дадут поспать на диване, через секунду вы будете посланы далеко и надолго, а уже через десять секунд вы вместе с ними будете лететь в ближайшую тюрьму вытаскивать из очередной передряги оступившегося члена семьи, или выкапывать на заднем дворе тело почившей 12 лет назад тётушки, или мчаться в соседний город для поиска заработка самыми безбашенными методами...



Страна: США
Студия: Showtime, Sterling Films (V), Warner Bros. Television
Продолжительность: ~ 00:55:00 серия
Перевод: Профессиональный (многоголосый, закадровый) - AlexFilm



Информация о файле:
Кодек: AVC
Формат: MKV
Качество: WEB-DLRip-AVC
Видео: MPEG-4 AVC, 1024x576 (16:9), 23.976 fps, ~ 1600 kbps, 0.113
Аудио RU: AC3, 6 ch, 48 kHz, 384 kbps
Аудио EN: AC3, 6 ch, 48 kHz, 448 kbps
Субтитры: Russian (Full |FOCS|), English (SDH)

***Внимание! В сериале присутствуют сцены с обнаженной натурой и ненормативная лексика!

General
Unique ID : 148693005820700069863099640649994357827 (0x6FDD3B32BF7D97E4E604E65B93564C43)
Complete name : D:\uTorrent\Shameless.US_S11_wolf1245_MediaBit\Shameless (US).(2020). WEB-DLRip-AVC from wolf1245 & MediaBit.S11E02.mkv
Format : Matroska
Format version : Version 4
File size : 897 MiB
Duration : 51 min 32 s
Overall bit rate : 2 433 kb/s
Movie name : Shameless (US).(2020). WEB-DLRip-AVC from wolf1245 & MediaBit.S11E02
Encoded date : UTC 2020-12-15 22:22:24
Writing application : mkvmerge v51.0.0 ('I Wish') 64-bit
Writing library : libebml v1.4.0 + libmatroska v1.6.2

Video
ID : 1
Format : AVC
Format/Info : Advanced Video Codec
Format profile : High@L4.1
Format settings : CABAC / 12 Ref Frames
Format settings, CABAC : Yes
Format settings, Reference frames : 12 frames
Codec ID : V_MPEG4/ISO/AVC
Duration : 51 min 32 s
Bit rate : 1 599 kb/s
Width : 1 024 pixels
Height : 576 pixels
Display aspect ratio : 16:9
Frame rate mode : Constant
Frame rate : 23.976 (24000/1001) FPS
Color space : YUV
Chroma subsampling : 4:2:0
Bit depth : 8 bits
Scan type : Progressive
Bits/(Pixel*Frame) : 0.113
Stream size : 589 MiB (66%)
Writing library : x264 core 157 r2958 57baac4
Encoding settings : cabac=1 / ref=12 / deblock=1:-3:-3 / analyse=0x3:0x133 / me=umh / subme=11 / psy=1 / psy_rd=1.03:0.03 / mixed_ref=1 / me_range=48 / chroma_me=1 / trellis=2 / 8x8dct=1 / cqm=0 / deadzone=21,11 / fast_pskip=0 / chroma_qp_offset=-3 / threads=10 / lookahead_threads=2 / sliced_threads=0 / nr=0 / decimate=0 / interlaced=0 / bluray_compat=0 / constrained_intra=0 / bframes=12 / b_pyramid=2 / b_adapt=2 / b_bias=0 / direct=3 / weightb=1 / open_gop=0 / weightp=2 / keyint=240 / keyint_min=24 / scenecut=40 / intra_refresh=0 / rc_lookahead=100 / rc=2pass / mbtree=0 / bitrate=1599 / ratetol=1.0 / qcomp=0.60 / qpmin=0 / qpmax=69 / qpstep=4 / cplxblur=20.0 / qblur=0.5 / vbv_maxrate=50000 / vbv_bufsize=62500 / nal_hrd=none / filler=0 / ip_ratio=1.40 / pb_ratio=1.30 / aq=1:0.80
Language : English
Default : Yes
Forced : No
Color range : Limited
Color primaries : BT.709
Transfer characteristics : BT.709
Matrix coefficients : BT.709

Audio #1
ID : 2
Format : AC-3
Format/Info : Audio Coding 3
Commercial name : Dolby Digital
Codec ID : A_AC3
Duration : 51 min 32 s
Bit rate mode : Constant
Bit rate : 384 kb/s
Channel(s) : 6 channels
Channel layout : L R C LFE Ls Rs
Sampling rate : 48.0 kHz
Frame rate : 31.250 FPS (1536 SPF)
Compression mode : Lossy
Stream size : 142 MiB (16%)
Title : MVO | AlexFilm
Language : Russian
Service kind : Complete Main
Default : Yes
Forced : No

Audio #2
ID : 3
Format : AC-3
Format/Info : Audio Coding 3
Commercial name : Dolby Digital
Codec ID : A_AC3
Duration : 51 min 32 s
Bit rate mode : Constant
Bit rate : 448 kb/s
Channel(s) : 6 channels
Channel layout : L R C LFE Ls Rs
Sampling rate : 48.0 kHz
Frame rate : 31.250 FPS (1536 SPF)
Compression mode : Lossy
Stream size : 165 MiB (18%)
Title : Original
Language : English
Service kind : Complete Main
Default : No
Forced : No

Text #1
ID : 4
Format : UTF-8
Codec ID : S_TEXT/UTF8
Codec ID/Info : UTF-8 Plain Text
Duration : 50 min 29 s
Bit rate : 167 b/s
Count of elements : 1243
Stream size : 62.0 KiB (0%)
Title : Full |FOCS|
Language : Russian
Default : No
Forced : No

Text #2
ID : 5
Format : UTF-8
Codec ID : S_TEXT/UTF8
Codec ID/Info : UTF-8 Plain Text
Duration : 50 min 43 s
Bit rate : 143 b/s
Count of elements : 1366
Stream size : 53.3 KiB (0%)
Title : SDH
Language : English
Default : No
Forced : No

Menu
00:00:00.000 : :Commercial
00:00:04.970 : :Previously On
00:01:28.970 : :Opening Credits
00:02:41.970 : :Scene 4
00:09:33.970 : :Scene 5
00:16:12.970 : :Scene 6
00:20:46.970 : :Scene 7
00:27:18.970 : :Scene 8
00:32:03.970 : :Scene 9
00:38:25.970 : :Scene 10
00:43:14.970 : :Scene 11
00:49:53.970 : :End Credits
00:50:52.970 : :Next On
Когда раздача ведётся путём добавления новых серий, при каждом добавлении создётся новый торрент. Чтобы начать докачку новой серии, пользователям необходимо сделать следующее:
(1) остановить скачивание,
(2) удалить старый торрент у себя из клиента (старые серии удалять не надо),
(3) скачать новый торрент и запустить его у себя в клиенте вместо старого, при этом указать клиенту путь в старую папку, куда и должно происходить скачивание новых серий.
Ваш клиент при этом должен произвести хеширование (проверку) старой папки (если не производит сам - помогите ему сделать это), и будет докачивать только те серии, которых у вас ещё нет. Старые серии при этом не удаляются, а продолжают раздаваться!
Eсли вы уже удалили старые серии, то предотвратить повторную закачку старых серий можно, отжав галочку в соответсвующих местах при запуске нового торрента. По возможности, желательно не удалять старые серии как можно дольше, чтобы релизер не столько продолжал раздавать старые серии, а смог сконцентрироваться на новых.
Релиз от: & &
piratbit.org



Скачать Бесстыжие через торрент https://d.radikal.ru/d33/2012/d9/113640afeb56.png Скачать фильм Бесстыжие через торрент бесплантно в хорошем качестве Описание: Американский ремейк британского сериала, повествующий о взбалмошной многодетной семье Галлахеров и их соседях, которые ... 10 10 10
Торрент: Зарегистрирован [2021-04-07 19:06] · скачан: 5 раз
Статус: √ проверено
Размер: 9.91 GB
Как cкачать? Как скачать Бесстыжие через торрент | UTorrent



Последний раз редактировалось: Lithuania (2021-04-07 19:06), всего редактировалось 2 раз(а)

28-11-2019 20:33  

Отключить всю рекламу на сайте

23-03-2021 06:15 Бесстыжие Скачать торрент  

А перевод где? С 5 серии перевода нетpiratbit.org



    Дорогой пользователь! Огромная просьба, поблагодарите релизера, оцените раздачу и оставьте свои комментарий, если Вы скачали Бесстыжие через торрент бесплатно! Внесите свою лепту в развитие PiratBit!
    Комментировать посты могут только пользователи прошедшие не сложную регистрацию
    Показать сообщения:    

    Бесстыжие через торрент
    Скачать бесплатно Бесстыжие
    Бесстыжие скачать торрент
    Бесстыжие смотреть онлайн
    Cкачать фильм Бесстыжие бесплатно
    Бесстыжие скачать торрент в хорошем качестве
    Бесстыжие смотреть онлайн бесплатно в хорошем качестве


    Вы не можете начинать темы
    Вы не можете отвечать на сообщения
    Вы не можете редактировать свои сообщения
    Вы не можете удалять свои сообщения
    Вы не можете голосовать в опросах
    Вы не можете прикреплять файлы к сообщениям
    Вы можете скачивать файлы