2 сезон

iTunes

MVO

1

2 сезон

iTunes

1 сезон

1 сезон

RePack

30

Новинка

ВАЖНО

ИГРА 18+

pack

RePack

MK11
pack

Легкие деньги

RePack

jed

RePack

fifa19

RePack

RDR2

RePack

NEED FOR SPEED™ PAYBACK

4 сезон

9 сезон

Бесстыжие 9 сезон

Все сериалы

все сериалы на PB.wtf

RePack

FAR CRY 5

Anonymous, добрый день, мы не успеваем собрать деньги на оплату серверов за декабрь и январь, помогите нам пожалуйста в это трудное время. В качестве благодарности мы отключим Вам всю рекламу на сайте (укажите свой ник в строку Ваше имя)!

×
  
Magnet ссылка

Ваша честь / Your Honor / Сезон: 1 / Серии: 1-6 из 10 (Эдвард Бергер) [2020, Триллер, драма, криминал, WEB-DLRip] MVO [Novamedia / Amedia] piratbit.org

Ваша честь через торрент piratbit.org

Раздают: 2 [ 0 KB/s ] Качают: 1 [ 0 KB/s ]
Размер: 4.37 GB | Добавлен: 15 д. назад | Торрент скачан:13 раз
Скачать  

10-12-2020 12:16 Ваша честь Скачать торрент  

Ваша честь | Your Honor
«***»
Год выпуска: 2020
Страна: США
Студия: CBS Television Studios, ed World
Жанр: Триллер, драма, криминал
Продолжительность: ~ 00:57:00 серия
Перевод: Профессиональный (многоголосый) | Novamedia по заказу Amedia
Субтитры: отсутствуют

Режиссер: Эдвард Бергер

rating

В ролях: Брайан Крэнстон, Хантер Дуэн, Майкл Стулбарг, Хоуп Дэвис, София Блэк-Д’Элиа, Исайя Уитлок мл., Тони Карран, Лилли Кэй, Кармен Эджого, Бенжамин Флорес мл.

Описание: Несмотря на связи отца, уважаемого и влиятельного в Новом Орлеане судьи, Адам Десиато (Хантер Дуэн) вовсе не мажор, родившийся с серебряной ложкой во рту. Он вежлив с соседями, ездит на подержанном авто и обожает своего пса Джанго. А еще юноша крайне болезненно переживает смерть матери. В годовщину ее гибели он приезжает в неблагополучный район, дабы почтить ее память, и тут же попадает в неприятности. Преследуемый бандой из гетто, Адам поспешно уезжает и, набрав скорость, не замечает летящего к нему на всех парах парнишку на мотоцикле. Происходит столкновение, и тинейджера отбрасывает на мостовую. Несчастный юноша, захлебываясь кровью, умирает в жутких конвульсиях, а запаниковавший Адам скрывается с места аварии, не дожидаясь полиции. Его отец, судья Майкл Десиато (Брайан Крэнстон), сам славится непредвзятостью и достойной работой в своем чине, а потому, хоть и разбитый трагедией, соглашается помочь сыну сделать правильный выбор. Вместе они решают поехать в полицейский участок с чистосердечным признанием, но на месте судья узнает, кто именно стал жертвой Адама. Под его колесами погиб сын Джимми Бакстера (Майкл Стулбарг) — самого опасного криминального авторитета во всем Новом Орлеане. Прекрасно понимая, что справедливость Адаму не светит, а Бакстер ни перед чем не остановится, пока не отомстит, Майкл берется покрывать своего ребенка. С этой лжи начинается настоящая война двух авторитетов по обе стороны закона. Пока Джимми и Майкл будут дергать за ниточки, вовлекая в паутину манипуляций все больше невинных людей, их родным придется страдать от угрызений совести и гнета обстоятельств. В этой истории не может быть победителей и проигравших — только кровь и новые трагедии…

Качество: WEB-DLRip
Формат: AVI

Видео: ~ 720x304 (2.37:1), 23.976 fps, XviD build 69 ~1500 kbps avg, 0.27 bit/pixel
Аудио : 48 kHz, AC3 Dolby Digital, 3/2 (L,C,R,l,r) + LFE ch, ~384.00 kbps avg
скриншот  скриншот  скриншот  скриншот  скриншот  

Общее
Полное имя : D:\Your_Honor_S01_E01_2020_WEB-DLRip_NM_by_Dalemake.avi
Формат : AVI
Формат/Информация : Audio Video Interleave
Размер файла : 745 Мбайт
Продолжительность : 56 м. 55 с.
Общий поток : 1 831 Кбит/сек
Программа кодирования : VirtualDubMod 1.5.10.3 | www.virtualdub-fr.org || (build 2550/release)
Библиотека кодирования : VirtualDubMod build 2550/release

Видео
Идентификатор : 0
Формат : MPEG-4 Visual
Профиль формата : Advanced Simple@L5
Настройки формата : BVOP1 / Custom Matrix
Параметр BVOP формата : 1
Параметр QPel формата : Нет
Параметр GMC формата : Без точки перехода
Параметр матрицы формата : Выборочная
Идентификатор кодека : XVID
Идентификатор кодека/Подсказка : XviD
Продолжительность : 56 м. 55 с.
Битрейт : 1 438 Кбит/сек
Ширина : 720 пикселей
Высота : 304 пикселя
Соотношение сторон : 2,35:1
Частота кадров : 23,976 (24000/1001) кадра/сек
Частота кадров в оригинале : 23,976 (23976/1000) кадра/сек
Цветовое пространство : YUV
Субдискретизация насыщенности : 4:2:0
Битовая глубина : 8 бит
Тип развёртки : Прогрессивная
Метод сжатия : С потерями
Бит/(Пиксели*Кадры) : 0.274
Размер потока : 585 Мбайт (79%)
Библиотека кодирования : XviD 69

Аудио
Идентификатор : 1
Формат : AC-3
Формат/Информация : Audio Coding 3
Коммерческое название : Dolby Digital
Идентификатор кодека : 2000
Продолжительность : 56 м. 55 с.
Вид битрейта : Постоянный
Битрейт : 384 Кбит/сек
Каналы : 6 каналов
Channel layout : L R C LFE Ls Rs
Частота : 48,0 КГц
Частота кадров : 31,250 кадров/сек (1536 SPF)
Метод сжатия : С потерями
Размер потока : 156 Мбайт (21%)
Выравнивание : Разделение по промежуткам
Продолжительность промежутка : 42 мс. (1,00 видеокадр)
Время предзагрузки промежутка : 500 мс.
Service kind : Complete Main

Когда раздача ведётся путём добавления новых серий, при каждом добавлении создётся новый торрент. Чтобы начать докачку новой серии, пользователям необходимо сделать следующее:
(1) остановить скачивание,
(2) удалить старый торрент у себя из клиента (старые серии удалять не надо),
(3) скачать новый торрент и запустить его у себя в клиенте вместо старого, при этом указать клиенту путь в старую папку, куда и должно происходить скачивание новых серий.
Ваш клиент при этом должен произвести хеширование (проверку) старой папки (если не производит сам - помогите ему сделать это), и будет докачивать только те серии, которых у вас ещё нет. Старые серии при этом не удаляются, а продолжают раздаваться!
Eсли вы уже удалили старые серии, то предотвратить повторную закачку старых серий можно, отжав галочку в соответсвующих местах при запуске нового торрента. По возможности, желательно не удалять старые серии как можно дольше, чтобы релизёр не столько продолжал раздавать старые серии, а смог сконцентрироваться на новых.

piratbit.org



Скачать Ваша честь через торрент https://i1.imageban.ru/out/2020/12/09/5ffbdc5f29057cdaa93144742142c09e.png Скачать фильм Ваша честь через торрент бесплантно в хорошем качестве Описание: Несмотря на связи отца, уважаемого и влиятельного в Новом Орлеане судьи, Адам Десиато (Хантер Дуэн) вовсе не мажор, родившийся с ... 10 10 5
Торрент: Зарегистрирован [2021-01-12 15:12] · скачан: 13 раз
Статус: √ проверено
Размер: 4.37 GB
Как cкачать? Как скачать Ваша честь через торрент | UTorrent

% Раздел Тема Автор DL S | L
Зарубежные сериалы [ 8.34 GB ] Ваша честь / Your Honor / Сезон: 1 / Серии: 1-6 из 10 [2020 WEB-DL 720p] [MVO] killermax2013 Скачать
2 | 0

28-11-2019 20:33  

Отключить всю рекламу на сайте

    Дорогой пользователь! Огромная просьба, поблагодарите релизера, оцените раздачу и оставьте свои комментарий, если Вы скачали Ваша честь через торрент бесплатно! Внесите свою лепту в развитие PiratBit!
    Комментировать посты могут только пользователи прошедшие не сложную регистрацию
    Показать сообщения:    

    Ваша честь через торрент
    Скачать бесплатно Ваша честь
    Ваша честь скачать торрент
    Ваша честь смотреть онлайн
    Cкачать фильм Ваша честь бесплатно
    Ваша честь скачать торрент в хорошем качестве
    Ваша честь смотреть онлайн бесплатно в хорошем качестве


    Вы не можете начинать темы
    Вы не можете отвечать на сообщения
    Вы не можете редактировать свои сообщения
    Вы не можете удалять свои сообщения
    Вы не можете голосовать в опросах
    Вы не можете прикреплять файлы к сообщениям
    Вы можете скачивать файлы