2 сезон

iTunes

MVO

1

2 сезон

iTunes

iTunes

1 сезон

RePack

30

Новинка

ВАЖНО

ИГРА 18+

pack

RePack

MK11
pack

Легкие деньги

RePack

jed

RePack

fifa19

RePack

RDR2

RePack

NEED FOR SPEED™ PAYBACK

4 сезон

9 сезон

Бесстыжие 9 сезон

Все сериалы

все сериалы на PB.wtf

RePack

FAR CRY 5

Anonymous, добрый вечер, мы не успеваем собрать деньги на оплату серверов за декабрь и январь, помогите нам пожалуйста в это трудное время. В качестве благодарности мы отключим Вам всю рекламу на сайте (укажите свой ник в строку Ваше имя)!

×
  
Magnet ссылка

Легенда о волках / Wolfwalkers (Томм Мур, Росс Стюарт) [2020, мультфильм, фэнтези, приключения, семейный, WEB-DL 1080p] DUB [Пифагор / Apple TV+] piratbit.org

Легенда о волках через торрент piratbit.org

Раздают: 23 [ 608 KB/s ] Качают: 1 [ 0 KB/s ]
Размер: 8.61 GB | Добавлен: 1 мес. 13 д. назад | Торрент скачан:205 раз
Скачать  

11-12-2020 14:35 Легенда о волках Скачать торрент  

Легенда о волках | Wolfwalkers
Год выпуска: 2020
Страна: Ирландия, Люксембург, США
Студия: Cartoon Saloon, Mélusine
Жанр: мультфильм, фэнтези, приключения, семейный
Продолжительность: 01:42:32
Перевод: Дублированный | Пифагор по заказу Apple TV+
Субтитры: Русские (Forced, Full, SDH), английские (Full, SDH), немецкие, эстонские, латышские, литовские, украинские (Full, SDH)

Режиссер: Томм Мур, Росс Стюарт

rating

В ролях: Хонор Книфси, Эва Уитэйкер, Шон Бин, Саймон Макберни, Мария Дойл Кеннеди, Томми Тирнан, Джон Кенни, Джон Мортон, Пол Янг, Нора Туми, Оливер МакГрат, Ниам Мойлс

Описание: Девочка Робин приезжает в Ирландию с отцом-охотником. Он должен истребить последнюю стаю волков, которых люди издревле считали злыми животными и боялись. Робин встречает местную девочку Мэб и узнаёт много нового об ирландских лесах и о себе самой.

Качество: WEB-DL 1080p
Формат: MKV

Видео: 1920x1038 at 23.976, MPEG-4 AVC, ~9700 kbps avg
Аудио#1 Russian: 48 kHz, E-AC3 JOC, 3/2 (L,C,R,l,r) + LFE ch, ~768 kbps avg |Дубляж, Пифагор по заказу Apple TV+|
Аудио#2 Russian: 48 kHz, E-AC3 JOC, 3/2 (L,C,R,l,r) + LFE ch, ~768 kbps avg |Audio Descrіptіon|
Аудио#3 English: 48 kHz, E-AC3 JOC, 3/2 (L,C,R,l,r) + LFE ch, ~768 kbps avg
скриншот  

General
Unique ID : 199391486515244680092910288029785012088 (0x96016748BB82DA1BBBBCE5BB0F903778)
Complete name : Wolfwalkers.1080p.ATVP.WEB-DL.DDP5.1.H.264-EniaHD.mkv
Format : Matroska
Format version : Version 4
File size : 8.61 GiB
Duration : 1 h 42 min
Overall bit rate : 12.0 Mb/s
Movie name : Wolfwalkers (2020) - EniaHD
Encoded date : UTC 2020-12-11 08:12:24
Writing application : mkvmerge v51.0.0 ('I Wish') 64-bit
Writing library : libebml v1.4.0 + libmatroska v1.6.2

Video
ID : 1
Format : AVC
Format/Info : Advanced Video Codec
Format profile : High@L4
Format settings : CABAC / 4 Ref Frames
Format settings, CABAC : Yes
Format settings, Reference fra : 4 frames
Codec ID : V_MPEG4/ISO/AVC
Duration : 1 h 42 min
Bit rate : 9 716 kb/s
Width : 1 920 pixels
Height : 1 038 pixels
Display aspect ratio : 1.85:1
Frame rate mode : Constant
Frame rate : 23.976 (24000/1001) FPS
Color space : YUV
Chroma subsampling : 4:2:0
Bit depth : 8 bits
Scan type : Progressive
Bits/(Pixel*Frame) : 0.203
Stream size : 6.96 GiB (81%)
Default : Yes
Forced : No
Color range : Limited
Color primaries : BT.709
Transfer characteristics : BT.709
Matrix coefficients : BT.709

Audio #1
ID : 2
Format : E-AC-3 JOC
Format/Info : Enhanced AC-3 with Joint Object Coding
Commercial name : Dolby Digital Plus with Dolby Atmos
Codec ID : A_EAC3
Duration : 1 h 42 min
Bit rate mode : Constant
Bit rate : 768 kb/s
Channel(s) : 6 channels
Channel layout : L R C LFE Ls Rs
Sampling rate : 48.0 kHz
Frame rate : 31.250 FPS (1536 SPF)
Compression mode : Lossy
Stream size : 563 MiB (6%)
Language : Russian
Service kind : Complete Main
Default : Yes
Forced : No
Complexity index : 16
Number of dynamic objects : 15
Bed channel count : 1 channel
Bed channel configuration : LFE

Audio #2
ID : 3
Format : E-AC-3 JOC
Format/Info : Enhanced AC-3 with Joint Object Coding
Commercial name : Dolby Digital Plus with Dolby Atmos
Codec ID : A_EAC3
Duration : 1 h 42 min
Bit rate mode : Constant
Bit rate : 768 kb/s
Channel(s) : 6 channels
Channel layout : L R C LFE Ls Rs
Sampling rate : 48.0 kHz
Frame rate : 31.250 FPS (1536 SPF)
Compression mode : Lossy
Stream size : 563 MiB (6%)
Title : Audio Deion
Language : Russian
Service kind : Complete Main
Default : No
Forced : No
Complexity index : 16
Number of dynamic objects : 15
Bed channel count : 1 channel
Bed channel configuration : LFE

Audio #3
ID : 4
Format : E-AC-3 JOC
Format/Info : Enhanced AC-3 with Joint Object Coding
Commercial name : Dolby Digital Plus with Dolby Atmos
Codec ID : A_EAC3
Duration : 1 h 42 min
Bit rate mode : Constant
Bit rate : 768 kb/s
Channel(s) : 6 channels
Channel layout : L R C LFE Ls Rs
Sampling rate : 48.0 kHz
Frame rate : 31.250 FPS (1536 SPF)
Compression mode : Lossy
Stream size : 563 MiB (6%)
Language : English
Service kind : Complete Main
Default : No
Forced : No
Complexity index : 16
Number of dynamic objects : 15
Bed channel count : 1 channel
Bed channel configuration : LFE

Text #1
ID : 5
Format : UTF-8
Codec ID : S_TEXT/UTF8
Codec ID/Info : UTF-8 Plain Text
Duration : 1 h 41 min
Bit rate : 0 b/s
Count of elements : 5
Stream size : 190 Bytes (0%)
Title : Forced
Language : Russian
Default : Yes
Forced : No

Text #2
ID : 6
Format : UTF-8
Codec ID : S_TEXT/UTF8
Codec ID/Info : UTF-8 Plain Text
Duration : 1 h 41 min
Bit rate : 62 b/s
Count of elements : 1114
Stream size : 46.3 KiB (0%)
Language : Russian
Default : No
Forced : No

Text #3
ID : 7
Format : UTF-8
Codec ID : S_TEXT/UTF8
Codec ID/Info : UTF-8 Plain Text
Duration : 1 h 42 min
Bit rate : 93 b/s
Count of elements : 1571
Stream size : 70.1 KiB (0%)
Title : SDH
Language : Russian
Default : No
Forced : No

Text #4
ID : 8
Format : UTF-8
Codec ID : S_TEXT/UTF8
Codec ID/Info : UTF-8 Plain Text
Duration : 1 h 36 min
Bit rate : 49 b/s
Count of elements : 1151
Stream size : 35.0 KiB (0%)
Language : English
Default : No
Forced : No

Text #5
ID : 9
Format : UTF-8
Codec ID : S_TEXT/UTF8
Codec ID/Info : UTF-8 Plain Text
Duration : 1 h 37 min
Bit rate : 63 b/s
Count of elements : 1639
Stream size : 45.7 KiB (0%)
Title : SDH
Language : English
Default : No
Forced : No

Text #6
ID : 10
Format : UTF-8
Codec ID : S_TEXT/UTF8
Codec ID/Info : UTF-8 Plain Text
Duration : 1 h 41 min
Bit rate : 48 b/s
Count of elements : 1032
Stream size : 35.7 KiB (0%)
Language : German
Default : No
Forced : No

Text #7
ID : 11
Format : UTF-8
Codec ID : S_TEXT/UTF8
Codec ID/Info : UTF-8 Plain Text
Duration : 1 h 41 min
Bit rate : 42 b/s
Count of elements : 1072
Stream size : 31.5 KiB (0%)
Language : Estonian
Default : No
Forced : No

Text #8
ID : 12
Format : UTF-8
Codec ID : S_TEXT/UTF8
Codec ID/Info : UTF-8 Plain Text
Duration : 1 h 41 min
Bit rate : 47 b/s
Count of elements : 1113
Stream size : 35.3 KiB (0%)
Language : Latvian
Default : No
Forced : No

Text #9
ID : 13
Format : UTF-8
Codec ID : S_TEXT/UTF8
Codec ID/Info : UTF-8 Plain Text
Duration : 1 h 41 min
Bit rate : 43 b/s
Count of elements : 1109
Stream size : 32.2 KiB (0%)
Language : Lithuanian
Default : No
Forced : No

Text #10
ID : 14
Format : UTF-8
Codec ID : S_TEXT/UTF8
Codec ID/Info : UTF-8 Plain Text
Duration : 1 h 41 min
Bit rate : 66 b/s
Count of elements : 1108
Stream size : 49.2 KiB (0%)
Language : Ukrainian
Default : No
Forced : No

Text #11
ID : 15
Format : UTF-8
Codec ID : S_TEXT/UTF8
Codec ID/Info : UTF-8 Plain Text
Duration : 1 h 42 min
Bit rate : 87 b/s
Count of elements : 1606
Stream size : 65.2 KiB (0%)
Title : SDH
Language : Ukrainian
Default : No
Forced : No

piratbit.org



Скачать Легенда о волках через торрент https://i5.imageban.ru/out/2020/12/11/286806831283688d379145dec41e89aa.jpg Скачать фильм Легенда о волках через торрент бесплантно в хорошем качестве Описание: Девочка Робин приезжает в Ирландию с отцом-охотником. Он должен истребить последнюю стаю волков, которых люди издревле считали ... 9.9 10 8
Info! Золотая раздача, скачанное не засчитывается.
Торрент: Зарегистрирован [2020-12-11 14:35] · скачан: 205 раз
Статус: √ проверено
Размер: 8.61 GB
Как cкачать? Как скачать Легенда о волках через торрент | UTorrent

% Раздел Тема Автор DL S | L
Иностранные мультфильмы [ 2.05 GB ] Легенда о волках / Wolfwalkers [2020 мультфильм WEB-DLRip] DUB [Пифагор / Apple TV bober100 Скачать
9 | 0
Иностранные мультфильмы [ 2.07 GB ] Легенда о волках / Wolfwalkers [2020 Мультфильм WEB-DLRip-AVC] [Пифагор | Apple TV Lithuania Скачать
6 | 0
Ultra HD (UHD: 2K, 4K, 8K) [ 18.63 GB ] Легенда о волках / Wolfwalkers [2020 мультфильм UHD WEB-DL 2160p] DUB [Пифагор / Apple TV bober100 Скачать
4 | 1
Иностранные мультфильмы [ 1.46 GB ] Легенда о волках / Wolfwalkers [2020 мультфильм WEB-DLRip] DUB [Пифагор / Apple TV bober100 Скачать
11 | 0

28-11-2019 20:33  

Отключить всю рекламу на сайте

    Дорогой пользователь! Огромная просьба, поблагодарите релизера, оцените раздачу и оставьте свои комментарий, если Вы скачали Легенда о волках через торрент бесплатно! Внесите свою лепту в развитие PiratBit!
    Комментировать посты могут только пользователи прошедшие не сложную регистрацию
    Показать сообщения:    

    Легенда о волках через торрент
    Скачать бесплатно Легенда о волках
    Легенда о волках скачать торрент
    Легенда о волках смотреть онлайн
    Cкачать фильм Легенда о волках бесплатно
    Легенда о волках скачать торрент в хорошем качестве
    Легенда о волках смотреть онлайн бесплатно в хорошем качестве


    Вы не можете начинать темы
    Вы не можете отвечать на сообщения
    Вы не можете редактировать свои сообщения
    Вы не можете удалять свои сообщения
    Вы не можете голосовать в опросах
    Вы не можете прикреплять файлы к сообщениям
    Вы можете скачивать файлы