1 сезон

3 сезон

iTunes

1

iTunes

DUB Netflix

iTunes

13

1 сезон

RePack

30

Deluxe

pack

Легкие деньги

ВАЖНО

ИГРА 18+

pack

RePack

MK11

RePack

jed

RePack

fifa19

RePack

RDR2

RePack

NEED FOR SPEED™ PAYBACK

4 сезон

9 сезон

Бесстыжие 9 сезон

Все сериалы

все сериалы на PB.wtf

RePack

FAR CRY 5

Anonymous, добрый вечер, мы не успеваем до 1 числа собрать деньги на оплату серверов, помогите нам пожалуйста в это трудное время. В качестве благодарности мы отключим Вам всю рекламу на сайте (укажите свой ник в строку Ваше имя)!

×
  
Magnet ссылка

Обычная женщина / Сезон: 2 / Серии: 1-8 из 8 (Наталия Мещанинова) [2020, Драма, криминал, WEBRip] piratbit.org

Обычная женщина через торрент piratbit.org

Раздают: 1 [ 0 KB/s ]
Размер: 4.68 GB | Добавлен: 5 мес. 16 д. назад | Торрент скачан:55 раз
Скачать  

17-12-2020 07:44 Обычная женщина Скачать торрент  

Обычная женщина Год выпуска: 2020
Страна: Россия
Выпущено: Production, Look Film
Жанр: Драма, криминал
Продолжительность: ~ 00:36:00 серия
Субтитры: отсутствуют

Режиссер: Наталия Мещанинова

rating

В ролях: Анна Михалкова, Евгений Гришковец, Татьяна Догилева, Александра Бортич, Юлия Мельникова, Елизавета Кононова, Дарья Савельева, Николай Шрайбер, Евгения Калинец, Александр Сударев, Егор Ковалёв, Алексей Тахаров

Описание: Героиня Анны Михалковой, которая втайне от окружающих подрабатывает сутенёршей, в продолжении благополучно станет многодетной матерью, но это не помешает ей совершать новые криминальные аферы и вести разборки с бандитами, в которые теперь будет втянута уже вся её семья.

Качество: WEBRip
Формат: AVI

Видео: 720x304 (2.37:1), 25 fps, XviD build 73 ~2000 kbps avg, 0.383 bit/pixel
Аудио: 48.0 kHz, AC3 Dolby Digital, 2/0 (L,R) ch, ~ 192 kbps
скриншот  скриншот  скриншот  скриншот  скриншот  

General
Complete name : D:\Obychnaya.zhenschina.S02.WEB-DLRip.25Kuzmich\Obychnaya.zhenschina.S02.E01.WEB-DLRip.25Kuzmich.avi
Format : AVI
Format/Info : Audio Video Interleave
File size : 595 MiB
Duration : 36 min 14 s
Overall bit rate : 2 295 kb/s
Writing application : VirtualDubMod 1.5.10.3 | www.virtualdub-fr.org || (build 2550/release)
Writing library : VirtualDubMod build 2550/release

Video
ID : 0
Format : MPEG-4 Visual
Format profile : Advanced Simple@L5
Format settings : BVOP1
Format settings, BVOP : 1
Format settings, QPel : No
Format settings, GMC : No warppoints
Format settings, Matrix : Default (MPEG)
Codec ID : XVID
Codec ID/Hint : XviD
Duration : 36 min 14 s
Bit rate : 2 093 kb/s
Width : 720 pixels
Height : 304 pixels
Display aspect ratio : 2.35:1
Frame rate : 25.000 FPS
Color space : YUV
Chroma subsampling : 4:2:0
Bit depth : 8 bits
Scan type : Progressive
Compression mode : Lossy
Bits/(Pixel*Frame) : 0.383
Stream size : 543 MiB (91%)
Writing library : XviD 73

Audio
ID : 1
Format : AC-3
Format/Info : Audio Coding 3
Codec ID : 2000
Duration : 36 min 14 s
Bit rate mode : Constant
Bit rate : 192 kb/s
Channel(s) : 2 channels
Channel positions : Front: L R
Sampling rate : 48.0 kHz
Frame rate : 31.250 FPS (1536 SPF)
Bit depth : 16 bits
Compression mode : Lossy
Stream size : 49.8 MiB (8%)
Alignment : Split accross interleaves
Interleave, duration : 40 ms (1.00 video frame)
Interleave, preload duratio : 500 ms
Service kind : Complete Main

Внимание! Раздача ведётся путём добавления новых серий; при каждом добавлении создаётся новый торрент.
Чтобы начать докачку новой серии, пользователям необходимо сделать следующее:
1. Остановить скачивание;
2. Удалить старый торрент у себя из клиента (старые серии удалять не надо);
3. Скачать новый торрент и запустить его у себя в клиенте вместо старого, при этом указать клиенту путь в старую папку куда и должно происходить скачивание новых серий. Ваш клиент при этом должен произвести хеширование (проверку) старой папки и будет докачивать только те серии, которых у вас ещё нет. Старые серии при этом не удаляются, а продолжают раздаваться! Eсли вы уже удалили старые серии, то предотвратить повторную закачку старых серий можно, отжав галочку в соответствующих местах при запуске нового торрента.

piratbit.org



Скачать Обычная женщина через торрент https://img11.lostpic.net/2020/12/17/a426a7844c85b7033845dc5932e5ee07.jpg Скачать фильм Обычная женщина через торрент бесплантно в хорошем качестве Описание: Героиня Анны Михалковой, которая втайне от окружающих подрабатывает сутенёршей, в продолжении благополучно станет многодетной ... 10 10 6
Торрент: Зарегистрирован [2021-01-07 13:43] · скачан: 55 раз
Статус: √ проверено
Размер: 4.68 GB
Как cкачать? Как скачать Обычная женщина через торрент | UTorrent

% Раздел Тема Автор DL S | L
TNT serials [ 4.96 GB ] Обычная женщина / Сезон: 2 / Серии: 1-8 из 8 [2020 WEBRip-AVC] bober100 Скачать
3 | 0
TNT serials [ 8.68 GB ] Обычная женщина / Сезон: 2 / Серии: 1-8 из 8 [2020 WEBRip 720p] bober100 Скачать
1 | 1
TNT serials [ 12.83 GB ] Обычная женщина / Сезон: 2 / Серии: 1-8 из 8 [2020 WEBRip 1080p] bober100 Скачать
2 | 0

28-11-2019 20:33  

Отключить всю рекламу на сайте

    Дорогой пользователь! Огромная просьба, поблагодарите релизера, оцените раздачу и оставьте свои комментарий, если Вы скачали Обычная женщина через торрент бесплатно! Внесите свою лепту в развитие PiratBit!
    Комментировать посты могут только пользователи прошедшие не сложную регистрацию
    Показать сообщения:    

    Обычная женщина через торрент
    Скачать бесплатно Обычная женщина
    Обычная женщина скачать торрент
    Обычная женщина смотреть онлайн
    Cкачать фильм Обычная женщина бесплатно
    Обычная женщина скачать торрент в хорошем качестве
    Обычная женщина смотреть онлайн бесплатно в хорошем качестве


    Вы не можете начинать темы
    Вы не можете отвечать на сообщения
    Вы не можете редактировать свои сообщения
    Вы не можете удалять свои сообщения
    Вы не можете голосовать в опросах
    Вы не можете прикреплять файлы к сообщениям
    Вы можете скачивать файлы