1 сезон

3 сезон

iTunes

1

iTunes

DUB Netflix

iTunes

13

1 сезон

RePack

30

Deluxe

pack

Легкие деньги

ВАЖНО

ИГРА 18+

pack

RePack

MK11

RePack

jed

RePack

fifa19

RePack

RDR2

RePack

NEED FOR SPEED™ PAYBACK

4 сезон

9 сезон

Бесстыжие 9 сезон

Все сериалы

все сериалы на PB.wtf

RePack

FAR CRY 5

Anonymous, добрый день, мы не успеваем до 1 числа собрать деньги на оплату серверов, помогите нам пожалуйста в это трудное время. В качестве благодарности мы отключим Вам всю рекламу на сайте (укажите свой ник в строку Ваше имя)!

×
  
Magnet ссылка

Обычная женщина / Сезон: 2 / Серии: 1-8 из 8 (Наталия Мещанинова) [2020, Драма, криминал, WEBRip-AVC] piratbit.org

Обычная женщина через торрент piratbit.org

Раздают: 1 [ 0 KB/s ]
Размер: 4.96 GB | Добавлен: 5 мес. 11 д. назад | Торрент скачан:57 раз
Скачать  

17-12-2020 17:14 Обычная женщина Скачать торрент  

Обычная женщина 2 Год выпуска: 2020
Страна: Россия
Выпущено: Production, Look Film
Жанр: Драма, криминал
Перевод: Не требуется
Продолжительность: ~ 00:36:00 серия

Субтитры: отсутствуют

Режиссер: Наталия Мещанинова

rating

В ролях: Анна Михалкова, Евгений Гришковец, Татьяна Догилева, Александра Бортич, Юлия Мельникова, Елизавета Кононова, Дарья Савельева, Николай Шрайбер, Евгения Калинец, Александр Сударев, Егор Ковалёв, Алексей Тахаров

Описание: Героиня Анны Михалковой, которая втайне от окружающих подрабатывает сутенёршей, в продолжении благополучно станет многодетной матерью, но это не помешает ей совершать новые криминальные аферы и вести разборки с бандитами, в которые теперь будет втянута уже вся её семья.

Качество: WEBRip-AVC
Формат: MKV

Видео: MPEG-4 AVC, ~ 1600 Кбит/с, 1024x432, 25 кадр/с
Аудио: 48.0 kHz, AC3 Dolby Digital, 2/0 (L,R) ch, ~ 192 kbps
скриншот  скриншот  скриншот  скриншот  скриншот  

General
General
Unique ID : 249431991765585577932861610628488436563 (0xBBA6DAAD0B62D5559BFB5A8F55711B53)
Complete name : F:\Обычная женщина.S02.(2020).WEBRip.(AVC).Files-x\01.Obychnaya.zhenschina.s02.(2020).WEBRip.(AVC).by.Серый1779.Files-x.mkv
Format : Matroska
Format version : Version 2
File size : 464 MiB
Duration : 36 min 14 s
Overall bit rate : 1 788 kb/s
Encoded date : UTC 2020-12-17 10:26:49
Writing application : mkvmerge v7.8.0 ('River Man') 32bit built on Apr 3 2015 12:11:22
Writing library : libebml v1.3.1 + libmatroska v1.4.2

Video
ID : 1
Format : AVC
Format/Info : Advanced Video Codec
Format profile : High@L4.1
Format settings : CABAC / 9 Ref Frames
Format settings, CABAC : Yes
Format settings, RefFrames : 9 frames
Codec ID : V_MPEG4/ISO/AVC
Duration : 36 min 14 s
Bit rate : 1 600 kb/s
Width : 1 024 pixels
Height : 432 pixels
Display aspect ratio : 2.40:1
Frame rate mode : Constant
Frame rate : 25.000 FPS
Color space : YUV
Chroma subsampling : 4:2:0
Bit depth : 8 bits
Scan type : Progressive
Bits/(Pixel*Frame) : 0.145
Stream size : 405 MiB (87%)
Writing library : x264 core 146 r2538 121396c
Encoding settings : cabac=1 / ref=9 / deblock=1:-2:-1 / analyse=0x3:0x133 / me=umh / subme=9 / psy=1 / psy_rd=1.00:0.15 / mixed_ref=1 / me_range=32 / chroma_me=1 / trellis=2 / 8x8dct=1 / cqm=0 / deadzone=21,11 / fast_pskip=0 / chroma_qp_offset=-3 / threads=18 / lookahead_threads=3 / sliced_threads=0 / nr=0 / decimate=1 / interlaced=0 / bluray_compat=0 / constrained_intra=0 / bframes=9 / b_pyramid=2 / b_adapt=2 / b_bias=0 / direct=1 / weightb=1 / open_gop=0 / weightp=2 / keyint=250 / keyint_min=25 / scenecut=40 / intra_refresh=0 / rc=2pass / mbtree=0 / bitrate=1600 / ratetol=1.0 / qcomp=0.60 / qpmin=0 / qpmax=69 / qpstep=4 / cplxblur=20.0 / qblur=0.5 / ip_ratio=1.40 / pb_ratio=1.30 / aq=2:1.00
Default : Yes
Forced : No
Color range : Limited
Color primaries : BT.709
Transfer characteristics : BT.709
Matrix coefficients : BT.709

Audio
ID : 2
Format : AC-3
Format/Info : Audio Coding 3
Format settings, Endianness : Big
Codec ID : A_AC3
Duration : 36 min 14 s
Bit rate mode : Constant
Bit rate : 192 kb/s
Channel(s) : 2 channels
Channel positions : Front: L R
Sampling rate : 48.0 kHz
Frame rate : 31.250 FPS (1536 SPF)
Bit depth : 16 bits
Compression mode : Lossy
Stream size : 49.8 MiB (11%)
Service kind : Complete Main
Default : Yes
Forced : No

Внимание! Раздача ведётся путём добавления новых серий; при каждом добавлении создаётся новый торрент.
Чтобы начать докачку новой серии, пользователям необходимо сделать следующее:
1. Остановить скачивание;
2. Удалить старый торрент у себя из клиента (старые серии удалять не надо);
3. Скачать новый торрент и запустить его у себя в клиенте вместо старого, при этом указать клиенту путь в старую папку куда и должно происходить скачивание новых серий. Ваш клиент при этом должен произвести хеширование (проверку) старой папки и будет докачивать только те серии, которых у вас ещё нет. Старые серии при этом не удаляются, а продолжают раздаваться! Eсли вы уже удалили старые серии, то предотвратить повторную закачку старых серий можно, отжав галочку в соответствующих местах при запуске нового торрента.

piratbit.org



Скачать Обычная женщина через торрент https://img11.lostpic.net/2020/12/17/a426a7844c85b7033845dc5932e5ee07.jpg Скачать фильм Обычная женщина через торрент бесплантно в хорошем качестве Описание: Героиня Анны Михалковой, которая втайне от окружающих подрабатывает сутенёршей, в продолжении благополучно станет многодетной ... 10 10 6
Торрент: Зарегистрирован [2021-01-07 13:44] · скачан: 57 раз
Статус: √ проверено
Размер: 4.96 GB
Как cкачать? Как скачать Обычная женщина через торрент | UTorrent

% Раздел Тема Автор DL S | L
TNT serials [ 8.68 GB ] Обычная женщина / Сезон: 2 / Серии: 1-8 из 8 [2020 WEBRip 720p] bober100 Скачать
1 | 0
TNT serials [ 4.68 GB ] Обычная женщина / Сезон: 2 / Серии: 1-8 из 8 [2020 WEBRip] bober100 Скачать
1 | 0
TNT serials [ 12.83 GB ] Обычная женщина / Сезон: 2 / Серии: 1-8 из 8 [2020 WEBRip 1080p] bober100 Скачать
1 | 0

28-11-2019 20:33  

Отключить всю рекламу на сайте

    Дорогой пользователь! Огромная просьба, поблагодарите релизера, оцените раздачу и оставьте свои комментарий, если Вы скачали Обычная женщина через торрент бесплатно! Внесите свою лепту в развитие PiratBit!
    Комментировать посты могут только пользователи прошедшие не сложную регистрацию
    Показать сообщения:    

    Обычная женщина через торрент
    Скачать бесплатно Обычная женщина
    Обычная женщина скачать торрент
    Обычная женщина смотреть онлайн
    Cкачать фильм Обычная женщина бесплатно
    Обычная женщина скачать торрент в хорошем качестве
    Обычная женщина смотреть онлайн бесплатно в хорошем качестве


    Вы не можете начинать темы
    Вы не можете отвечать на сообщения
    Вы не можете редактировать свои сообщения
    Вы не можете удалять свои сообщения
    Вы не можете голосовать в опросах
    Вы не можете прикреплять файлы к сообщениям
    Вы можете скачивать файлы