1 сезон

1 сезон

iTunes

1

КиноПоиск HD

Кинопоиск HD

iTunes

13

1 сезон

RePack

30

Новинка

ВАЖНО

ИГРА 18+

pack

RePack

MK11
pack

Легкие деньги

RePack

jed

RePack

fifa19

RePack

RDR2

RePack

NEED FOR SPEED™ PAYBACK

4 сезон

9 сезон

Бесстыжие 9 сезон

Все сериалы

все сериалы на PB.wtf

RePack

FAR CRY 5
  
Magnet ссылка

Скайлайн 3 / Skylin3s / Skylines (Лайам О Доннелл) [2020, Фантастика, боевик, BD Remux 1080p] DUB [iTunes] piratbit.org

Скайлайн 3 через торрент piratbit.org

Раздают: 2 [ 41 KB/s ]
Размер: 19.84 GB | Добавлен: 10 д. назад | Торрент скачан:68 раз
Скачать  

18-12-2020 17:39 Скайлайн 3 Скачать торрент  

Скайлайн 3 | Skylin3s | Skylines
Год выпуска: 2020
Страна: Франция
Выпущено: MArtbox, Fasten Films, Media Finance Capital, Mirabelle Pictures Productions
Жанр: Фантастика, боевик
Продолжительность: 01:53:19
Перевод: Дублированный | iTunes
Субтитры: Русские (Forced), английские

Режиссер: Лайам О Доннелл

rating

В ролях: Линдси Морган, Джонатан Ховард, Дэниэл Бернхард, Рона Митра, Наоми Танкел, Чарли Юн, Джереми Фицджералд, Иева Андреевайте, Джеймс Космо, Александр Сиддиг, Яян Рухьян, Саманта Жан, Жиэдре Бонд, Пхун Джян

Описание: Через 15 лет после вторжения неизвестный вирус угрожает хрупкому сосуществованию дружественных инопланетных гибридов и людей. Родившаяся на космическом корабле мутант Роуз Корли сама испытывает трудности с управлением огневой рукой, когда на неё выходят члены сопротивления. Они предлагают девушке в составе хорошо подготовленного отряда, куда входит и её брат-инопланетянин Трент, отправиться на вражескую планету и захватить сердечник от разрушенного корабля, который поможет спасти человечество.

Качество: BD Remux 1080p
Формат: MKV

Видео: MPEG-4 AVC, 22.6 Мb/s, 1920x1080, 23.976 FPS
Аудио #1 Russian: 48 kHz, AC3 Dolby Digital, 3/2 (L, C, R, l, r) + LFE ch, ~384 Kbps | DUB | iTunes
Аудио #2 English: 48 kHz, DTS-HD Master Audio, 3/2 (L, C, R, l, r) + LFE ch, ~2054 Kbps | Original
скриншот  скриншот  скриншот  скриншот  

Complete name : Skylines.2020.1080p.BDREMUX.ELEKTRI4KA.UNIONGANG.mkv
Format : Matroska
Format version : Version 4
File size : 19.8 GiB
Duration : 1 h 53 min
Overall bit rate mode : Variable
Overall bit rate : 25.0 Mb/s
Movie name : Skylines.2020.1080p.BDREMUX.ELEKTRI4KA.UNIONGANG.
Encoded date : UTC 2021-04-11 20:41:59
Writing application : mkvmerge v8.3.0 ('Over the Horizon') 64bit
Writing library : libebml v1.3.1 + libmatroska v1.4.2

Video
ID : 1
Format : AVC
Format/Info : Advanced Video Codec
Format profile : High@L4.1
Format settings : CABAC / 3 Ref Frames
Format settings, CABAC : Yes
Format settings, Reference frames : 3 frames
Codec ID : V_MPEG4/ISO/AVC
Duration : 1 h 53 min
Bit rate mode : Variable
Bit rate : 22.6 Mb/s
Maximum bit rate : 35.0 Mb/s
Width : 1 920 pixels
Height : 1 080 pixels
Display aspect ratio : 16:9
Frame rate mode : Constant
Frame rate : 23.976 (24000/1001) FPS
Standard : NTSC
Color space : YUV
Chroma subsampling : 4:2:0
Bit depth : 8 bits
Scan type : Progressive
Bits/(Pixel*Frame) : 0.455
Stream size : 17.9 GiB (90%)
Language : English
Default : No
Forced : No
Color range : Limited
Color primaries : BT.709
Transfer characteristics : BT.709
Matrix coefficients : BT.709

Audio #1
ID : 2
Format : AC-3
Format/Info : Audio Coding 3
Commercial name : Dolby Digital
Codec ID : A_AC3
Duration : 1 h 53 min
Bit rate mode : Constant
Bit rate : 384 kb/s
Channel(s) : 6 channels
Channel layout : L R C LFE Ls Rs
Sampling rate : 48.0 kHz
Frame rate : 31.250 FPS (1536 SPF)
Compression mode : Lossy
Stream size : 312 MiB (2%)
Title : DUB (iTunes)
Language : Russian
Service kind : Complete Main
Default : Yes
Forced : Yes

Audio #2
ID : 3
Format : DTS XLL
Format/Info : Digital Theater Systems
Commercial name : DTS-HD Master Audio
Codec ID : A_DTS
Duration : 1 h 53 min
Bit rate mode : Variable
Bit rate : 2 054 kb/s
Channel(s) : 6 channels
Channel layout : C L R Ls Rs LFE
Sampling rate : 48.0 kHz
Frame rate : 93.750 FPS (512 SPF)
Bit depth : 16 bits
Compression mode : Lossless
Stream size : 1.63 GiB (8%)
Title : DTS-HD MA 5.1
Language : English
Default : No
Forced : No

Text #1
ID : 4
Format : UTF-8
Codec ID : S_TEXT/UTF8
Codec ID/Info : UTF-8 Plain Text
Duration : 1 h 42 min
Bit rate : 9 b/s
Count of elements : 171
Stream size : 6.78 KiB (0%)
Title : Forced
Language : Russian
Default : Yes
Forced : No

Text #2
ID : 5
Format : UTF-8
Codec ID : S_TEXT/UTF8
Codec ID/Info : UTF-8 Plain Text
Duration : 1 h 44 min
Bit rate : 38 b/s
Count of elements : 1021
Stream size : 29.4 KiB (0%)
Title : English-SRT
Language : English
Default : No
Forced : No

Menu
00:00:00.000 : en:Chapter 01
00:17:53.614 : en:Chapter 02
00:32:07.842 : en:Chapter 03
00:51:53.110 : en:Chapter 04
01:13:12.179 : en:Chapter 05
01:34:54.146 : en:Chapter 06

piratbit.org



Скачать Скайлайн 3 через торрент https://d.radikal.ru/d22/2104/74/c92023cc3e58.png Скачать фильм Скайлайн 3 через торрент бесплантно в хорошем качестве Описание: Через 15 лет после вторжения неизвестный вирус угрожает хрупкому сосуществованию дружественных инопланетных гибридов и людей. ... 9.5 10 26
Торрент: Зарегистрирован [2021-04-12 02:56] · скачан: 68 раз
Статус: √ проверено
Размер: 19.84 GB
Как cкачать? Как скачать Скайлайн 3 через торрент | UTorrent

% Раздел Тема Автор DL S | L
Фильмы 2019-2020 [DVDrip, WEB-DLRip, HDrip] (DUB, MVO) [ 1.41 GB ] Скайлайн 3 / Skylin3s / Skylines [2020 BDRip] - Twi7ter Скачать
30 | 1
Фильмы 2019-2020 [DVDrip, WEB-DLRip, HDrip] (DUB, MVO) [ 1.46 GB ] Скайлайн 3 / Skylin3s / Skylines [2020 BDRip] bober100 Скачать
6 | 0
Фильмы [HD 720p, 1080p] (Хороший звук DUB, MVO) [ 5.6 GB ] Скайлайн 3 / Skylin3s / Skylines [2020 BDRip 720p] bober100 Скачать
6 | 0
Фильмы 2019-2020 [DVDrip, WEB-DLRip, HDrip] (DUB, MVO) [ 2.13 GB ] Скайлайн 3 / Skylin3s / Skylines [2020 BDRip] - Twi7ter Скачать
20 | 1
Фильмы 2019-2020 [DVDrip, WEB-DLRip, HDrip] (DUB, MVO) [ 2.4 GB ] Скайлайн 3 / Skylin3s / Skylines [2020 BDRip-AVC] +AVO [А. Дольский] bober100 Скачать
5 | 0
Фильмы с авторской озвучкой [ 2.18 GB ] Скайлайн 3 / Skylin3s / Skylines [2020 BDRip] AVO [А. Дольский] bober100 Скачать
1 | 0
Фильмы [HD 720p, 1080p] (Хороший звук DUB, MVO) [ 8.92 GB ] Скайлайн 3 / Skylin3s / Skylines [2020 BDRip 1080p] +AVO [А. Дольский] bober100 Скачать
6 | 0


Последний раз редактировалось: bober100 (2021-04-12 02:56), всего редактировалось 1 раз

28-11-2019 20:33  

Отключить всю рекламу на сайте

    Дорогой пользователь! Огромная просьба, поблагодарите релизера, оцените раздачу и оставьте свои комментарий, если Вы скачали Скайлайн 3 через торрент бесплатно! Внесите свою лепту в развитие PiratBit!
    Комментировать посты могут только пользователи прошедшие не сложную регистрацию
    Показать сообщения:    

    Скайлайн 3 через торрент
    Скачать бесплатно Скайлайн 3
    Скайлайн 3 скачать торрент
    Скайлайн 3 смотреть онлайн
    Cкачать фильм Скайлайн 3 бесплатно
    Скайлайн 3 скачать торрент в хорошем качестве
    Скайлайн 3 смотреть онлайн бесплатно в хорошем качестве


    Вы не можете начинать темы
    Вы не можете отвечать на сообщения
    Вы не можете редактировать свои сообщения
    Вы не можете удалять свои сообщения
    Вы не можете голосовать в опросах
    Вы не можете прикреплять файлы к сообщениям
    Вы можете скачивать файлы