2 сезон

iTunes

MVO

1

2 сезон

iTunes

iTunes

1 сезон

RePack

30

Новинка

ВАЖНО

ИГРА 18+

pack

RePack

MK11
pack

Легкие деньги

RePack

jed

RePack

fifa19

RePack

RDR2

RePack

NEED FOR SPEED™ PAYBACK

4 сезон

9 сезон

Бесстыжие 9 сезон

Все сериалы

все сериалы на PB.wtf

RePack

FAR CRY 5

Anonymous, добрый день, мы не успеваем собрать деньги на оплату серверов за декабрь и январь, помогите нам пожалуйста в это трудное время. В качестве благодарности мы отключим Вам всю рекламу на сайте (укажите свой ник в строку Ваше имя)!

×
  
Magnet ссылка

Противостояние / The Stand / Сезон: 1 / Серии: 1-4 из 9 (Джош Бун, Бриджет Паларди, Даниэль Круди) [2020, Ужасы, фантастика, фэнтези, триллер, приключения, WEB-DL 1080p] 3xMVO [Кравец-Рекордз / Amedia, TVShows, HDRezka Studio] piratbit.org

Противостояние через торрент piratbit.org

Раздают: 3 [ 116 KB/s ] Качают: 5 [ 0 KB/s ]
Размер: 14.67 GB | Добавлен: 3 д. назад | Торрент скачан:14 раз
Скачать  

18-12-2020 20:01 Противостояние Скачать торрент  

Противостояние | The Stand
Год выпуска: 2020
Страна: США
Студия: CBS Television Studios, Mosaic Media Group, Vertigo Entertainment
Жанр: Ужасы, фантастика, фэнтези, триллер, драма, приключения
Продолжительность: ~ 00:59:00
Перевод:
Профессиональный (многоголосый) | "Кравец-Рекордз" по заказу Amedia
Профессиональный (многоголосый) | TVShows
Профессиональный (многоголосый) | HDRezka Studio
Субтитры: Русские (Full), английские (SDH)

Режиссер: Джош Бун, Бриджет Паларди, Даниэль Круди

rating

В ролях: Джеймс Марсден, Джован Адепо, Вупи Голдберг, Эмбер Хёрд, Брэд Уильям Хенке, Кэтрин МакНамара, Александр Скарсгард, Дэниел Сунджата, Оуэн Тиг, Нат Вулф и другие.

Описание: На секретной базе происходит утечка смертельного вируса. Весь штат лаборатории погибает на рабочих местах. Чудом выживает один из охранников вместе с женой и ребенком. Однако его освобождение с базы стоит жизни тысячам людей — начинается эпидемия. Немногие уцелевшие разделились на два лагеря: одни остались верны идеалам прошлого, другие примкнули к загадочному Черному Человеку, который стремится к мировому господству.

Качество: WEB-DL 1080p
Формат: MKV

Видео: MPEG-4 AVC, 1920x804 [16:9], 24.000 fps, ~ 6880 Kbps
Аудио 1: [Русский] AC3, 48 kHz, 6 ch, 384 Kbps - AMEDIA / Kravec
Аудио 1: [Русский] AC3, 48 kHz, 6 ch, 384 Kbps - TVShows
Аудио 1: [Русский] AC3, 48 kHz, 6 ch, 384 Kbps - HDRezka Studio
Аудио 2: [Английский] AC3, 48 kHz, 6 ch, 640 Kbps
скриншот  скриншот  скриншот  скриншот  скриншот  

Общее
Уникальный идентификатор : 212516270692849349146362127985961252388 (0x9FE1251AC46C2AEEAB3F0DDF969AB624)
Полное имя : C:\Противостояние. Сериал. 2020. EniaHD (WEB-DLRip 1080p)\The.Stand.2020.s01e01. Конец.mkv
Формат : Matroska
Версия формата : Version 2
Размер файла : 3,65 Гбайт
Продолжительность : 59 м. 6 с.
Общий поток : 8839 Кбит/сек
Название фильма : The.Stand.2020.S01E01.The End.EniaHD@Atla22
Дата кодирования : UTC 2020-12-25 09:34:36
Программа кодирования : mkvmerge v6.9.1 ('Blue Panther') 32bit built on Apr 18 2014 18:15:44
Библиотека кодирования : libebml v1.3.0 + libmatroska v1.4.1

Видео
Идентификатор : 1
Формат : AVC
Формат/Информация : Advanced Video Codec
Профиль формата : High@L4.1
Параметр CABAC формата : Да
Параметр RefFrames формата : 4 кадра
Идентификатор кодека : V_MPEG4/ISO/AVC
Продолжительность : 59 м. 6 с.
Битрейт : 6871 Кбит/сек
Ширина : 1920 пикселей
Высота : 804 пикселя
Соотношение сторон : 2,40:1
Режим частоты кадров : Постоянный
Частота кадров : 24,000 кадра/сек
Цветовое пространство : YUV
Субдискретизация насыщенности : 4:2:0
Битовая глубина : 8 бит
Тип развёртки : Прогрессивная
Бит/(Пиксели*Кадры) : 0.185
Размер потока : 2,84 Гбайт (78%)
Библиотека кодирования : x264 core 157 r2935 545de2f
Настройки программы : cabac=1 / ref=4 / deblock=1:-3:-3 / analyse=0x3:0x133 / me=umh / subme=10 / psy=1 / psy_rd=1.00:0.00 / mixed_ref=1 / me_range=48 / chroma_me=1 / trellis=2 / 8x8dct=1 / cqm=0 / deadzone=21,11 / fast_pskip=0 / chroma_qp_offset=-2 / threads=18 / lookahead_threads=3 / sliced_threads=0 / nr=0 / decimate=0 / interlaced=0 / bluray_compat=0 / constrained_intra=0 / bframes=8 / b_pyramid=2 / b_adapt=2 / b_bias=0 / direct=3 / weightb=1 / open_gop=0 / weightp=2 / keyint=250 / keyint_min=23 / scenecut=40 / intra_refresh=0 / rc=crf / mbtree=0 / crf=17.0 / qcomp=0.60 / qpmin=0 / qpmax=69 / qpstep=4 / ip_ratio=1.30 / pb_ratio=1.20 / aq=3:0.80
Язык : English
Default : Да
Forced : Нет
Цветовой диапазон : Limited
Основные цвета : BT.709
Характеристики трансфера : BT.709
Коэффициенты матрицы : BT.709

Аудио #1
Идентификатор : 2
Формат : AC-3
Формат/Информация : Audio Coding 3
Расширение режима : CM (complete main)
Параметр Endianness формата : Big
Идентификатор кодека : A_AC3
Продолжительность : 59 м. 6 с.
Вид битрейта : Постоянный
Битрейт : 384 Кбит/сек
Каналы : 6 каналов
Расположение каналов : Front: L C R, Side: L R, LFE
Частота : 48,0 КГц
Частота кадров : 31,250 кадров/сек (1536 spf)
Метод сжатия : С потерями
Размер потока : 162 Мбайт (4%)
Заголовок : Kravec
Язык : Russian
Default : Да
Forced : Нет

Аудио #2
Идентификатор : 3
Формат : AC-3
Формат/Информация : Audio Coding 3
Расширение режима : CM (complete main)
Параметр Endianness формата : Big
Идентификатор кодека : A_AC3
Продолжительность : 59 м. 6 с.
Вид битрейта : Постоянный
Битрейт : 384 Кбит/сек
Каналы : 6 каналов
Расположение каналов : Front: L C R, Side: L R, LFE
Частота : 48,0 КГц
Частота кадров : 31,250 кадров/сек (1536 spf)
Метод сжатия : С потерями
Размер потока : 162 Мбайт (4%)
Заголовок : TVShows
Язык : Russian
Default : Нет
Forced : Нет

Аудио #3
Идентификатор : 4
Формат : AC-3
Формат/Информация : Audio Coding 3
Расширение режима : CM (complete main)
Параметр Endianness формата : Big
Идентификатор кодека : A_AC3
Продолжительность : 59 м. 6 с.
Вид битрейта : Постоянный
Битрейт : 384 Кбит/сек
Каналы : 6 каналов
Расположение каналов : Front: L C R, Side: L R, LFE
Частота : 48,0 КГц
Частота кадров : 31,250 кадров/сек (1536 spf)
Метод сжатия : С потерями
Размер потока : 162 Мбайт (4%)
Заголовок : HDRezka Studio
Язык : Russian
Default : Нет
Forced : Нет

Аудио #4
Идентификатор : 5
Формат : AC-3
Формат/Информация : Audio Coding 3
Расширение режима : CM (complete main)
Параметр Endianness формата : Big
Идентификатор кодека : A_AC3
Продолжительность : 59 м. 6 с.
Вид битрейта : Постоянный
Битрейт : 640 Кбит/сек
Каналы : 6 каналов
Расположение каналов : Front: L C R, Side: L R, LFE
Частота : 48,0 КГц
Частота кадров : 31,250 кадров/сек (1536 spf)
Метод сжатия : С потерями
Размер потока : 271 Мбайт (7%)
Язык : English
Default : Нет
Forced : Нет

Текст #1
Идентификатор : 6
Формат : UTF-8
Идентификатор кодека : S_TEXT/UTF8
Идентификатор кодека/Информация : UTF-8 Plain Text
Заголовок : Forced
Язык : Russian
Default : Да
Forced : Да

Текст #2
Идентификатор : 7
Формат : UTF-8
Идентификатор кодека : S_TEXT/UTF8
Идентификатор кодека/Информация : UTF-8 Plain Text
Язык : Russian
Default : Нет
Forced : Нет

Текст #3
Идентификатор : 8
Формат : UTF-8
Идентификатор кодека : S_TEXT/UTF8
Идентификатор кодека/Информация : UTF-8 Plain Text
Заголовок : SDH
Язык : English
Default : Нет
Forced : Нет

Внимание! Раздача ведётся путём добавления новых серий; при каждом добавлении создаётся новый торрент.
Чтобы начать докачку новой серии, пользователям необходимо сделать следующее:
1. Остановить скачивание;
2. Удалить старый торрент у себя из клиента (старые серии удалять не надо);
3. Скачать новый торрент и запустить его у себя в клиенте вместо старого, при этом указать клиенту путь в старую папку куда и должно происходить скачивание новых серий. Ваш клиент при этом должен произвести хеширование (проверку) старой папки и будет докачивать только те серии, которых у вас ещё нет. Старые серии при этом не удаляются, а продолжают раздаваться! Eсли вы уже удалили старые серии, то предотвратить повторную закачку старых серий можно, отжав галочку в соответствующих местах при запуске нового торрента.

piratbit.org



Скачать Противостояние через торрент https://i5.imageban.ru/out/2020/12/18/c681b56c337ef926632946a54e6513dd.jpg Скачать фильм Противостояние через торрент бесплантно в хорошем качестве Описание: На секретной базе происходит утечка смертельного вируса. Весь штат лаборатории погибает на рабочих местах. Чудом выживает один из ... 10 10 8
Info! Серебряная раздача, засчитывается только 50% скачанного.
Торрент: Зарегистрирован [2021-01-13 22:21] · скачан: 14 раз
Статус: √ проверено
Размер: 14.67 GB
Как cкачать? Как скачать Противостояние через торрент | UTorrent

% Раздел Тема Автор DL S | L
Зарубежные сериалы [ 2.99 GB ] Противостояние / The Stand / Сезон: 1 / Серии: 1-4 из 9 [2020 WEB-DLRip] MVO [TVShows] bober100 Скачать
8 | 5
Зарубежные сериалы [ 4.66 GB ] Противостояние / The Stand / Сезон: 1 / Серии: 1-4 из 9 [2020 WEB-DLRip-AVC] 2xMVO [Кравец-Рекордз / Amedia HDRezka Studio] GEKADOL Скачать
5 | 0


Последний раз редактировалось: bober100 (2020-12-29 19:20), всего редактировалось 2 раз(а)

28-11-2019 20:33  

Отключить всю рекламу на сайте

27-12-2020 00:08 Противостояние Скачать торрент  

Внимание! Раздача полностью переделана. Добавлена русская озвучка от TVShows.piratbit.org



    Дорогой пользователь! Огромная просьба, поблагодарите релизера, оцените раздачу и оставьте свои комментарий, если Вы скачали Противостояние через торрент бесплатно! Внесите свою лепту в развитие PiratBit!
    Комментировать посты могут только пользователи прошедшие не сложную регистрацию
    Показать сообщения:    

    Противостояние через торрент
    Скачать бесплатно Противостояние
    Противостояние скачать торрент
    Противостояние смотреть онлайн
    Cкачать фильм Противостояние бесплатно
    Противостояние скачать торрент в хорошем качестве
    Противостояние смотреть онлайн бесплатно в хорошем качестве


    Вы не можете начинать темы
    Вы не можете отвечать на сообщения
    Вы не можете редактировать свои сообщения
    Вы не можете удалять свои сообщения
    Вы не можете голосовать в опросах
    Вы не можете прикреплять файлы к сообщениям
    Вы можете скачивать файлы