2 сезон

iTunes

MVO

1

2 сезон

iTunes

iTunes

1 сезон

RePack

30

Новинка

ВАЖНО

ИГРА 18+

pack

RePack

MK11
pack

Легкие деньги

RePack

jed

RePack

fifa19

RePack

RDR2

RePack

NEED FOR SPEED™ PAYBACK

4 сезон

9 сезон

Бесстыжие 9 сезон

Все сериалы

все сериалы на PB.wtf

RePack

FAR CRY 5

Anonymous, добрый день, мы не успеваем собрать деньги на оплату серверов за декабрь и январь, помогите нам пожалуйста в это трудное время. В качестве благодарности мы отключим Вам всю рекламу на сайте (укажите свой ник в строку Ваше имя)!

×
  
Magnet ссылка

Противостояние / The Stand / Сезон: 1 / Серии: 1-4 из 9 (Джош Бун, Бриджет Паларди, Даниэль Круди) [2020, США, Ужасы, фантастика, фэнтези, триллер, приключения, WEB-DLRip-AVC] 2xMVO [Кравец-Рекордз / Amedia, HDRezka Studio] piratbit.org

Противостояние через торрент piratbit.org

Раздают: 5 [ 0 KB/s ]
Размер: 4.66 GB | Добавлен: 3 д. назад | Торрент скачан:18 раз
Скачать  

19-12-2020 04:24 Противостояние Скачать торрент  

Противостояние / The Stand


  • Год выпуска: 2020
  • Страна: США
  • Жанр: Ужасы, фантастика, фэнтези, триллер, драма, приключения
  • Продолжительность: ~ 00:55:00 (Серия)
  • Перевод: Профессиональный (многоголосый) | "Кравец-Рекордз" по заказу Amedia | HDRezka Studio (присутствует ненормативная лексика!!!)

  • Субтитры: Русские (Forced, Full)
  • Режиссер: Джош Бун, Бриджет Паларди, Даниэль Круди
  • В ролях:
    Джеймс Марсден, Джован Адепо, Вупи Голдберг, Эмбер Хёрд, Брэд Уильям Хенке, Кэтрин МакНамара, Александр Скарсгард, Дэниел Сунджата, Оуэн Тиг, Нат Вулф и др.
    Описание:


    На секретной базе происходит утечка смертельного вируса. Весь штат лаборатории погибает на рабочих местах. Чудом выживает один из охранников вместе с женой и ребенком. Однако его освобождение с базы стоит жизни тысячам людей — начинается эпидемия. Немногие уцелевшие разделились на два лагеря: одни остались верны идеалам прошлого, другие примкнули к загадочному Черному Человеку, который стремится к мировому господству.
  • Рейтинг:

    rating



  • Качество: WEB-DLRip-AVC
  • Формат: :MKV
  • Видео кодек: AVC
  • Аудио кодек: AC3
  • Видео: 1527 Кбит/сек (1800 Кбит/сек), 1024*428 (2,40:1), в 24,000 кадра/сек, AVC
  • Аудио: Русский 448 Кбит/сек, 48,0 КГц, 16 бит, 6 каналов, AC-3|[Кравец-Рекордз / Amedia]|
  • Аудио: Русский 448 Кбит/сек, 48,0 КГц, 16 бит, 6 каналов, AC-3|[HDRezka Studio]|
  • Аудио: Английский 448 Кбит/сек, 48,0 КГц, 16 бит, 6 каналов, AC-3
    Внимание! Раздача ведётся путём добавления новых серий; при каждом добавлении создаётся новый торрент. Чтобы начать докачку новой серии, пользователям необходимо сделать следующее:
    (1) остановить скачивание,
    (2) удалить старый торрент у себя из клиента (старые серии удалять не надо),
    (3) скачать новый торрент и запустить его у себя в клиенте вместо старого, при этом указать клиенту путь в старую папку куда и должно происходить скачивание новых серий.

    Ваш клиент при этом должен произвести хеширование (проверку) старой папки (если не производит сам - помогите ему сделать это), и будет докачивать только те серии которых у вас ещё нет. Старые серии при этом не удаляются, а продолжают раздаваться!

    Eсли вы уже удалили старые серии, то предотвратить повторную закачку старых серий можно, отжав галочку в соответствующих местах при запуске нового торрента. По возможности, желательно не удалять старые серии как можно дольше чтобы релизёр не столько продолжал раздавать старые серии, а смог сконцентрироваться на новых.
    Общее
    Уникальный идентификатор : 254415428060057797727043606543515575372 (0xBF66A10E1B3B5AC136859F0A463CE44C)
    Полное имя : I:\Противостояние (The Stand) Сезон 1\The.Stand.2020.s01e01.(Конец).WEB-DLRip-AVC.Кравец-Рекордз.HDRezka Studio.mkv
    Формат : Matroska
    Версия формата : Version 4
    Размер файла : 1,15 Гбайт
    Продолжительность : 56 м. 19 с.
    Общий поток : 2929 Кбит/сек
    Название фильма : The.Stand.2020.S01E01.The.End.EniaHD@Atla22
    Программа кодирования : XviD4PSP 8.0.59
    Библиотека кодирования : Lavf58.20.100
    ErrorDetectionType : Per level 1
    ENCODING_INFO : MATROSKA,WEBM > MKV Пользовательский

    Видео
    Идентификатор : 1
    Формат : AVC
    Формат/Информация : Advanced Video Codec
    Профиль формата : High@L3.1
    Настройки формата : CABAC / 4 Ref Frames
    Параметр CABAC формата : Да
    Параметр RefFrames формата : 4 кадра
    Идентификатор кодека : V_MPEG4/ISO/AVC
    Продолжительность : 56 м. 19 с.
    Битрейт : 1527 Кбит/сек
    Номинальный битрейт : 1800 Кбит/сек
    Ширина : 1024 пикселя
    Высота : 428 пикселей
    Соотношение сторон : 2,40:1
    Режим частоты кадров : Постоянный
    Частота кадров : 24,000 кадра/сек
    Цветовое пространство : YUV
    Субдискретизация насыщенности : 4:2:0
    Битовая глубина : 8 бит
    Тип развёртки : Прогрессивная
    Бит/(Пиксели*Кадры) : 0.145
    Размер потока : 615 Мбайт (52%)
    Библиотека кодирования : x264 core 157 r2969 d4099dd
    Настройки программы : cabac=1 / ref=3 / deblock=1:-1:-1 / analyse=0x3:0x133 / me=hex / subme=7 / psy=1 / psy_rd=1.00:0.20 / mixed_ref=1 / me_range=16 / chroma_me=1 / trellis=1 / 8x8dct=1 / cqm=0 / deadzone=21,11 / fast_pskip=1 / chroma_qp_offset=-3 / threads=9 / lookahead_threads=1 / sliced_threads=0 / nr=0 / decimate=1 / interlaced=0 / bluray_compat=0 / constrained_intra=0 / bframes=3 / b_pyramid=2 / b_adapt=2 / b_bias=0 / direct=3 / weightb=1 / open_gop=0 / weightp=2 / keyint=240 / keyint_min=24 / scenecut=40 / intra_refresh=0 / rc_lookahead=40 / rc=cbr / mbtree=1 / bitrate=1800 / ratetol=1.0 / qcomp=0.60 / qpmin=0 / qpmax=69 / qpstep=4 / vbv_maxrate=1800 / vbv_bufsize=1285 / nal_hrd=none / filler=0 / ip_ratio=1.40 / aq=1:1.00
    Язык : English
    Default : Да
    Forced : Нет
    Цветовой диапазон : Limited
    Основные цвета : BT.709
    Характеристики трансфера : BT.709
    Коэффициенты матрицы : BT.709
    ENCODING_INFO : H264 > X264 CBR 1800kbps HQ

    Аудио #1
    Идентификатор : 2
    Формат : AC-3
    Формат/Информация : Audio Coding 3
    Коммерческое название : Dolby Digital
    Идентификатор кодека : A_AC3
    Продолжительность : 56 м. 19 с.
    Вид битрейта : Постоянный
    Битрейт : 448 Кбит/сек
    Каналы : 6 каналов
    ChannelLayout : L R C LFE Ls Rs
    Частота : 48,0 КГц
    Частота кадров : 31,250 кадров/сек (1536 SPF)
    Битовая глубина : 16 бит
    Метод сжатия : С потерями
    Размер потока : 180 Мбайт (15%)
    Заголовок : Kravec
    Язык : Russian
    ServiceKind/String : Complete Main
    Default : Да
    Forced : Нет
    ENCODING_INFO : AC3 > AC3 CBR 448kbps

    Аудио #2
    Идентификатор : 3
    Формат : AC-3
    Формат/Информация : Audio Coding 3
    Коммерческое название : Dolby Digital
    Идентификатор кодека : A_AC3
    Продолжительность : 56 м. 19 с.
    Вид битрейта : Постоянный
    Битрейт : 448 Кбит/сек
    Каналы : 6 каналов
    ChannelLayout : L R C LFE Ls Rs
    Частота : 48,0 КГц
    Частота кадров : 31,250 кадров/сек (1536 SPF)
    Битовая глубина : 16 бит
    Метод сжатия : С потерями
    Размер потока : 180 Мбайт (15%)
    Заголовок : HDRezka Studio
    Язык : Russian
    ServiceKind/String : Complete Main
    Default : Нет
    Forced : Нет
    ENCODING_INFO : AC3 > AC3 CBR 448kbps

    Аудио #3
    Идентификатор : 4
    Формат : AC-3
    Формат/Информация : Audio Coding 3
    Коммерческое название : Dolby Digital
    Идентификатор кодека : A_AC3
    Продолжительность : 56 м. 19 с.
    Вид битрейта : Постоянный
    Битрейт : 448 Кбит/сек
    Каналы : 6 каналов
    ChannelLayout : L R C LFE Ls Rs
    Частота : 48,0 КГц
    Частота кадров : 31,250 кадров/сек (1536 SPF)
    Битовая глубина : 16 бит
    Метод сжатия : С потерями
    Размер потока : 180 Мбайт (15%)
    Язык : English
    ServiceKind/String : Complete Main
    Default : Нет
    Forced : Нет
    ENCODING_INFO : AC3 > AC3 CBR 448kbps

    Текст #1
    Идентификатор : 5
    Формат : UTF-8
    Идентификатор кодека : S_TEXT/UTF8
    Идентификатор кодека/Информация : UTF-8 Plain Text
    Заголовок : Forced
    Язык : Russian
    Default : Да
    Forced : Да
    ENCODING_INFO : SUBRIP > SUBRIP

    Текст #2
    Идентификатор : 6
    Формат : UTF-8
    Идентификатор кодека : S_TEXT/UTF8
    Идентификатор кодека/Информация : UTF-8 Plain Text
    Язык : Russian
    Default : Нет
    Forced : Нет
    ENCODING_INFO : SUBRIP > SUBRIP





    Скриншоты:
    скриншот   скриншот   скриншот   скриншот   скриншот   скриншот   скриншот  
    скриншот  
    piratbit.org



  • Скачать Противостояние через торрент https://pic1.kartinco.top/images/12/7y1kf.jpg Скачать фильм Противостояние через торрент бесплантно в хорошем качестве Описание: На секретной базе происходит утечка смертельного вируса. Весь штат лаборатории погибает на рабочих местах. Чудом выживает один ... 9.3 10 4
    Торрент: Зарегистрирован [2021-01-13 23:15] · скачан: 18 раз
    Статус: √ проверено
    Размер: 4.66 GB
    Как cкачать? Как скачать Противостояние через торрент | UTorrent

    % Раздел Тема Автор DL S | L
    Зарубежные сериалы [ 14.67 GB ] Противостояние / The Stand / Сезон: 1 / Серии: 1-4 из 9 [2020 WEB-DL 1080p] 3xMVO [Кравец-Рекордз / Amedia TVShows HDRezka Studio] bober100 Скачать
    4 | 5
    Зарубежные сериалы [ 2.99 GB ] Противостояние / The Stand / Сезон: 1 / Серии: 1-4 из 9 [2020 WEB-DLRip] MVO [TVShows] bober100 Скачать
    8 | 5

    28-11-2019 20:33  

    Отключить всю рекламу на сайте

      Дорогой пользователь! Огромная просьба, поблагодарите релизера, оцените раздачу и оставьте свои комментарий, если Вы скачали Противостояние через торрент бесплатно! Внесите свою лепту в развитие PiratBit!
      Комментировать посты могут только пользователи прошедшие не сложную регистрацию
      Показать сообщения:    

      Противостояние через торрент
      Скачать бесплатно Противостояние
      Противостояние скачать торрент
      Противостояние смотреть онлайн
      Cкачать фильм Противостояние бесплатно
      Противостояние скачать торрент в хорошем качестве
      Противостояние смотреть онлайн бесплатно в хорошем качестве


      Вы не можете начинать темы
      Вы не можете отвечать на сообщения
      Вы не можете редактировать свои сообщения
      Вы не можете удалять свои сообщения
      Вы не можете голосовать в опросах
      Вы не можете прикреплять файлы к сообщениям
      Вы можете скачивать файлы