2 сезон

iTunes

MVO

1

2 сезон

iTunes

iTunes

1 сезон

RePack

30

Ultimate

ВАЖНО

ИГРА 18+

pack

RePack

MK11
pack

Легкие деньги

RePack

jed

RePack

fifa19

RePack

RDR2

RePack

NEED FOR SPEED™ PAYBACK

4 сезон

9 сезон

Бесстыжие 9 сезон

Все сериалы

все сериалы на PB.wtf

RePack

FAR CRY 5

Anonymous, доброй ночи, мы не успеваем собрать деньги на оплату серверов за декабрь и январь, помогите нам пожалуйста в это трудное время. В качестве благодарности мы отключим Вам всю рекламу на сайте (укажите свой ник в строку Ваше имя)!

×
  
Magnet ссылка

Темная Лига справедливости: Война Апоколипса / Justice League Dark: Apokolips War (Мэтт Питерс, Кристина Сотта) [2020, Мультфильм, фантастика, боевик, BDRip 1080p] DUB (rus, ukr) [iTunes] piratbit.org

Темная Лига справедливости: Война Апоколипса через торрент piratbit.org

Раздают: 5 [ 0.7 KB/s ]
Размер: 6.75 GB | Добавлен: 28 д. назад | Торрент скачан:82 раза
Скачать  

19-12-2020 05:14 Темная Лига справедливости: Война Апоколипса Скачать торрент  

Темная Лига справедливости: Война Апоколипса | Justice League Dark: Apokolips War
]Год выпуска: 2020
Страна: США
Студия: Warner Bros. Animation
Жанр: Мультфильм, фантастика, боевик
Продолжительность: 01:30:11
Перевод: Дублированный | iTunes
Субтитры: Русские (Full), английские (Full)

Режиссер: Мэтт Питерс, Кристина Сотта

rating

В ролях: Роджер Кросс, Розарио Доусон, Кристофер Горам, Камилла Ладдингтон, Шемар Мур, Джерри О’Коннелл, Джейсон О’Мара, Мэтт Райан, Сачие Алессио, Стюарт Аллан

Описание: Когда тиран Дарксайд вторгается на планету Земля, лишь отважная Лига Справедливости может спасти её от глобального уничтожения. Самые сильные герои собираются вместе, чтобы дать последний бой, но проигрывают. Теперь им придется жить под гнетом Дарксайда.

Качество: BDRip 1080p
Формат: MKV

Видео: MPEG-4 AVC, 9500 Kbit/s, 1920x1080, 23.976 fps
Аудио 1: 48 kHz, AC3 Dolby Digital, 3/2 (L, C, R, l, r) + LFE ch, ~384 kbps | русский
Аудио 2: 48 kHz, AC3 Dolby Digital, 2/0 (L, R) ch, ~192 kbps | украинский
Аудио 3: 48 kHz, AC3 Dolby Digital, 3/2 (L, C, R, l, r) + LFE ch, ~640 kbps | английский
скриншот  скриншот  скриншот  скриншот  

Temnaya.Liga.spravedlivosti.Voyna.Apokolipsa.2020.1080p.BluRay.ELEKTRI4KA.UNIONGANG.mkv
Format : Matroska
Format version : Version 4
File size : 6.75 GiB
Duration : 1 h 30 min
Overall bit rate : 10.7 Mb/s
Movie name : Temnaya.Liga.spravedlivosti.Voyna.Apokolipsa.2020.1080p.BluRay.ELEKTRI4KA.UNIONGANG
Encoded date : UTC 2020-12-19 01:54:49
Writing application : mkvmerge v51.0.0 ('I Wish') 64-bit
Writing library : libebml v1.4.0 + libmatroska v1.6.2

Video
ID : 1
Format : AVC
Format/Info : Advanced Video Codec
Format profile : High@L4.1
Format settings : CABAC / 4 Ref Frames
Format settings, CABAC : Yes
Format settings, Reference frames : 4 frames
Codec ID : V_MPEG4/ISO/AVC
Duration : 1 h 30 min
Bit rate : 9 500 kb/s
Width : 1 920 pixels
Height : 1 080 pixels
Display aspect ratio : 16:9
Frame rate mode : Constant
Frame rate : 23.976 (24000/1001) FPS
Color space : YUV
Chroma subsampling : 4:2:0
Bit depth : 8 bits
Scan type : Progressive
Bits/(Pixel*Frame) : 0.191
Stream size : 5.99 GiB (89%)
Title : Encoded by ELEKTRI4KA
Writing library : x264 core 161 r3020 d198931
Encoding settings : cabac=1 / ref=4 / deblock=1:-3:-3 / analyse=0x3:0x113 / me=umh / subme=10 / psy=1 / psy_rd=1.00:0.15 / mixed_ref=1 / me_range=32 / chroma_me=1 / trellis=2 / 8x8dct=1 / cqm=0 / deadzone=21, 11 / fast_pskip=0 / chroma_qp_offset=-3 / threads=34 / lookahead_threads=5 / sliced_threads=0 / nr=0 / decimate=0 / interlaced=0 / bluray_compat=0 / constrained_intra=0 / bframes=8 / b_pyramid=2 / b_adapt=2 / b_bias=0 / direct=3 / weightb=0 / open_gop=0 / weightp=2 / keyint=240 / keyint_min=24 / scenecut=40 / intra_refresh=0 / rc=2pass / mbtree=0 / bitrate=9500 / ratetol=1.0 / qcomp=0.60 / qpmin=0 / qpmax=69 / qpstep=4 / cplxblur=20.0 / qblur=0.5 / ip_ratio=1.40 / pb_ratio=1.30 / aq=1:1.00
Language : English
Default : Yes
Forced : No

Audio #1
ID : 2
Format : AC-3
Format/Info : Audio Coding 3
Commercial name : Dolby Digital
Codec ID : A_AC3
Duration : 1 h 30 min
Bit rate mode : Constant
Bit rate : 384 kb/s
Channel(s) : 6 channels
Channel layout : L R C LFE Ls Rs
Sampling rate : 48.0 kHz
Frame rate : 31.250 FPS (1536 SPF)
Compression mode : Lossy
Stream size : 248 MiB (4%)
Title : Dub (iTunes)
Language : Russian
Service kind : Complete Main
Default : Yes
Forced : No

Audio #2
ID : 3
Format : AC-3
Format/Info : Audio Coding 3
Commercial name : Dolby Digital
Codec ID : A_AC3
Duration : 1 h 30 min
Bit rate mode : Constant
Bit rate : 192 kb/s
Channel(s) : 2 channels
Channel layout : L R
Sampling rate : 48.0 kHz
Frame rate : 31.250 FPS (1536 SPF)
Compression mode : Lossy
Stream size : 124 MiB (2%)
Title : MVO
Language : Ukrainian
Service kind : Complete Main
Default : No
Forced : No

Audio #3
ID : 4
Format : AC-3
Format/Info : Audio Coding 3
Commercial name : Dolby Digital
Codec ID : A_AC3
Duration : 1 h 30 min
Bit rate mode : Constant
Bit rate : 640 kb/s
Channel(s) : 6 channels
Channel layout : L R C LFE Ls Rs
Sampling rate : 48.0 kHz
Frame rate : 31.250 FPS (1536 SPF)
Compression mode : Lossy
Stream size : 413 MiB (6%)
Title : Original
Language : English
Service kind : Complete Main
Default : No
Forced : No

Text #1
ID : 5
Format : UTF-8
Codec ID : S_TEXT/UTF8
Codec ID/Info : UTF-8 Plain Text
Duration : 1 h 29 min
Bit rate : 77 b/s
Count of elements : 989
Stream size : 50.8 KiB (0%)
Title : Full
Language : Russian
Default : No
Forced : No

Text #2
ID : 6
Format : UTF-8
Codec ID : S_TEXT/UTF8
Codec ID/Info : UTF-8 Plain Text
Duration : 1 h 24 min
Bit rate : 45 b/s
Count of elements : 1004
Stream size : 28.4 KiB (0%)
Title : Full
Language : English
Default : No
Forced : No

Menu
00:00:00.000 : :Chapter 01
00:08:30.885 : :Chapter 02
00:17:35.095 : :Chapter 03
00:27:06.625 : :Chapter 04
00:35:31.170 : :Chapter 05
00:44:35.673 : :Chapter 06
00:53:16.109 : :Chapter 07
01:01:53.626 : :Chapter 08
01:08:14.340 : :Chapter 09
01:17:38.195 : :Chapter 10
01:26:55.043 : :Chapter 11

piratbit.org



Скачать Темная Лига справедливости: Война Апоколипса через торрент https://i3.imageban.ru/out/2020/12/19/97ea1577e45ead9aa1afb6653eb29330.png Скачать фильм Темная Лига справедливости: Война Апоколипса через торрент бесплантно в хорошем качестве Описание: Когда тиран Дарксайд вторгается на планету Земля, лишь отважная Лига Справедливости может спасти её от глобального уничтожения. ... 9.4 10 7
Торрент: Зарегистрирован [2020-12-19 05:14] · скачан: 82 раз
Статус: √ проверено
Размер: 6.75 GB
Как cкачать? Как скачать Темная Лига справедливости: Война Апоколипса через торрент | UTorrent

% Раздел Тема Автор DL S | L
Зарубежные Мультфильмы (BDRip 1080p, 720p, Blu-ray, BD-Remux) [ 11.14 GB ] Темная Лига справедливости: Война Апоколипса / Justice League Dark: Apokolips War [2020 Мультфильм BD Remux 1080p] DUB bober100 Скачать
16 | 0
Зарубежные Мультфильмы (BDRip 1080p, 720p, Blu-ray, BD-Remux) [ 4.55 GB ] Темная Лига справедливости: Война Апоколипса / Justice League Dark: Apokolips War [2020 Мультфильм BDRip 720p] DUB bober100 Скачать
9 | 0
Иностранные мультфильмы [ 1.42 GB ] Темная Лига справедливости: Война Апоколипса / Justice League Dark: Apokolips War [2020 Мультфильм BDRip] bober100 Скачать
6 | 0

28-11-2019 20:33  

Отключить всю рекламу на сайте

25-12-2020 11:20 Темная Лига справедливости: Война Апоколипса Скачать торрент  

хз откуда такой рейтинг высокий, но сюжета в этом мульте нет от слова совсем. Примерно, как в фильмах Сталоне где упор на мясо, а сюжет чисто для галочки тупой и на 10 минут. Тут идентично, все крутится вокруг кровавых убийств всех членов лиги, титанов и злодеев. Все, считайте, что заспойлерил 1 час фильма. Хотите посмотреть, как ваших любимых героев - разрывают на части или сжирают? Тогда это кино для вас, иначе пустая трата времени.piratbit.org



    Дорогой пользователь! Огромная просьба, поблагодарите релизера, оцените раздачу и оставьте свои комментарий, если Вы скачали Темная Лига справедливости: Война Апоколипса через торрент бесплатно! Внесите свою лепту в развитие PiratBit!
    Комментировать посты могут только пользователи прошедшие не сложную регистрацию
    Показать сообщения:    

    Темная Лига справедливости: Война Апоколипса через торрент
    Скачать бесплатно Темная Лига справедливости: Война Апоколипса
    Темная Лига справедливости: Война Апоколипса скачать торрент
    Темная Лига справедливости: Война Апоколипса смотреть онлайн
    Cкачать фильм Темная Лига справедливости: Война Апоколипса бесплатно
    Темная Лига справедливости: Война Апоколипса скачать торрент в хорошем качестве
    Темная Лига справедливости: Война Апоколипса смотреть онлайн бесплатно в хорошем качестве


    Вы не можете начинать темы
    Вы не можете отвечать на сообщения
    Вы не можете редактировать свои сообщения
    Вы не можете удалять свои сообщения
    Вы не можете голосовать в опросах
    Вы не можете прикреплять файлы к сообщениям
    Вы можете скачивать файлы