2 сезон

iTunes

MVO

1

2 сезон

iTunes

1 сезон

1 сезон

RePack

30

Ultimate

ВАЖНО

ИГРА 18+

pack

RePack

MK11
pack

Легкие деньги

RePack

jed

RePack

fifa19

RePack

RDR2

RePack

NEED FOR SPEED™ PAYBACK

4 сезон

9 сезон

Бесстыжие 9 сезон

Все сериалы

все сериалы на PB.wtf

RePack

FAR CRY 5

Anonymous, добрый вечер, мы не успеваем собрать деньги на оплату серверов за декабрь и январь, помогите нам пожалуйста в это трудное время. В качестве благодарности мы отключим Вам всю рекламу на сайте (укажите свой ник в строку Ваше имя)!

×
  
Magnet ссылка

Темная Лига справедливости: Война Апоколипса / Justice League Dark: Apokolips War (Мэтт Питерс, Кристина Сотта) [2020, Мультфильм, фантастика, боевик, BD Remux 1080p] DUB (rus, ukr) [iTunes] piratbit.org

Темная Лига справедливости: Война Апоколипса через торрент piratbit.org

Раздают: 11 [ 555 KB/s ]
Размер: 11.14 GB | Добавлен: 1 мес. 9 д. назад | Торрент скачан:146 раз
Скачать  

19-12-2020 05:18 Темная Лига справедливости: Война Апоколипса Скачать торрент  

Темная Лига справедливости: Война Апоколипса | Justice League Dark: Apokolips War
]Год выпуска: 2020
Страна: США
Студия: Warner Bros. Animation
Жанр: Мультфильм, фантастика, боевик
Продолжительность: 01:30:11
Перевод: Дублированный | iTunes
Субтитры: Русские (Full), английские (Full)

Режиссер: Мэтт Питерс, Кристина Сотта

rating

В ролях: Роджер Кросс, Розарио Доусон, Кристофер Горам, Камилла Ладдингтон, Шемар Мур, Джерри О’Коннелл, Джейсон О’Мара, Мэтт Райан, Сачие Алессио, Стюарт Аллан

Описание: Когда тиран Дарксайд вторгается на планету Земля, лишь отважная Лига Справедливости может спасти её от глобального уничтожения. Самые сильные герои собираются вместе, чтобы дать последний бой, но проигрывают. Теперь им придется жить под гнетом Дарксайда.

Качество: BD Remux 1080p
Формат: MKV

Видео: MPEG-4 AVC, 14.8 Мbit/s, 1920x1080, 23.976 fps
Аудио 1: 48 kHz, AC3 Dolby Digital, 3/2 (L, C, R, l, r) + LFE ch, ~384 kbps | русский
Аудио 2: 48 kHz, AC3 Dolby Digital, 2/0 (L, R) ch, ~192 kbps | украинский
Аудио 3: 48 kHz, DTS-HD MA, 3/2 (L, C, R, l, r) + LFE ch, ~2320 kbps | английский
скриншот  скриншот  скриншот  скриншот  

Complete name: Temnaya.Liga.spravedlivosti.Voyna.Apokolipsa.2020.1080p.BluRay.REMUX.ELEKTRI4KA.UNIONGANG.mkv
Format: Matroska
Format version: Version 4 / Version 2
File size: 11.1 GiB
Duration: 1 h 30 min
Overall bit rate mode: Variable
Overall bit rate: 17.7 Mb/s
Movie name: .ELEKTRI4KA.UNIONGANG.
Encoded date: UTC 2020-12-18 21:52:47
Writing application: mkvmerge v8.3.0 ('Over the Horizon') 64bit
Writing library: libebml v1.3.1 + libmatroska v1.4.2

Video
ID: 1
Format: AVC
Format/Info: Advanced Video Codec
Format profile: High@L4.1
Format settings, CABAC: Yes
Format settings, Reference frames: 4 frames
Codec ID: V_MPEG4/ISO/AVC
Duration: 1 h 30 min
Bit rate mode: Variable
Bit rate: 14.8 Mb/s
Maximum bit rate: 40.0 Mb/s
Width: 1 920 pixels
Height: 1 080 pixels
Display aspect ratio: 16:9
Frame rate mode: Constant
Frame rate: 23.976 (24000/1001) FPS
Color space: YUV
Chroma subsampling: 4:2:0
Bit depth: 8 bits
Scan type: Progressive
Bits/(Pixel*Frame): 0.297
Stream size: 9.31 GiB (84%)
Title: .ELEKTRI4KA.UNIONGANG.
Language: English
Default: No
Forced: No

Audio #1
ID: 2
Format: AC-3
Format/Info: Audio Coding 3
Mode extension: CM (complete main)
Format settings, Endianness: Big
Codec ID: A_AC3
Duration: 1 h 30 min
Bit rate mode: Constant
Bit rate: 384 kb/s
Channel(s): 6 channels
Channel positions: Front: L C R, Side: L R, LFE
Sampling rate: 48.0 kHz
Frame rate: 31.250 FPS (1536 spf)
Bit depth: 16 bits
Compression mode: Lossy
Stream size: 248 MiB (2%)
Title: DUB (iTunes)
Language: Russian
Default: Yes
Forced: Yes

Audio #2
ID: 3
Format: AC-3
Format/Info: Audio Coding 3
Mode extension: CM (complete main)
Format settings, Endianness: Big
Codec ID: A_AC3
Duration: 1 h 30 min
Bit rate mode: Constant
Bit rate: 192 kb/s
Channel(s): 2 channels
Channel positions: Front: L R
Sampling rate: 48.0 kHz
Frame rate: 31.250 FPS (1536 spf)
Bit depth: 16 bits
Compression mode: Lossy
Stream size: 124 MiB (1%)
Title: MVO
Language: Ukrainian
Default: No
Forced: No

Audio #3
ID: 4
Format: DTS
Format/Info: Digital Theater Systems
Format profile: MA / Core
Mode: 16
Format settings, Endianness: Big
Codec ID: A_DTS
Duration: 1 h 30 min
Bit rate mode: Variable / Constant
Bit rate: 2 320 kb/s / 1 509 kb/s
Channel(s): 6 channels
Channel positions: Front: L C R, Side: L R, LFE
Sampling rate: 48.0 kHz
Frame rate: 93.750 FPS (512 spf)
Bit depth: 16 bits
Compression mode: Lossless / Lossy
Stream size: 1.46 GiB (13%)
Title: Original
Language: English
Default: No
Forced: No

Text #1
ID: 5
Format: UTF-8
Codec ID: S_TEXT/UTF8
Codec ID/Info: UTF-8 Plain Text
Duration: 1 h 29 min
Bit rate: 77 b/s
Count of elements: 989
Stream size: 50.8 KiB (0%)
Title: Full
Language: Russian
Default: Yes
Forced: No

Text #2
ID: 6
Format: UTF-8
Codec ID: S_TEXT/UTF8
Codec ID/Info: UTF-8 Plain Text
Duration: 1 h 24 min
Bit rate: 45 b/s
Count of elements: 1004
Stream size: 28.4 KiB (0%)
Title: English-SRT
Language: English
Default: No
Forced: No

Menu
00:00:00.000: en:Chapter 01
00:08:30.885: en:Chapter 02
00:17:35.095: en:Chapter 03
00:27:06.625: en:Chapter 04
00:35:31.170: en:Chapter 05
00:44:35.673: en:Chapter 06
00:53:16.109: en:Chapter 07
01:01:53.626: en:Chapter 08
01:08:14.340: en:Chapter 09
01:17:38.195: en:Chapter 10
01:26:55.043: en:Chapter 11

piratbit.org



Скачать Темная Лига справедливости: Война Апоколипса через торрент https://i3.imageban.ru/out/2020/12/19/97ea1577e45ead9aa1afb6653eb29330.png Скачать фильм Темная Лига справедливости: Война Апоколипса через торрент бесплантно в хорошем качестве Описание: Когда тиран Дарксайд вторгается на планету Земля, лишь отважная Лига Справедливости может спасти её от глобального уничтожения. ... 10 10 6
Info! Золотая раздача, скачанное не засчитывается.
Торрент: Зарегистрирован [2020-12-19 05:18] · скачан: 146 раз
Статус: √ проверено
Размер: 11.14 GB
Как cкачать? Как скачать Темная Лига справедливости: Война Апоколипса через торрент | UTorrent

% Раздел Тема Автор DL S | L
Зарубежные Мультфильмы (BDRip 1080p, 720p, Blu-ray, BD-Remux) [ 6.75 GB ] Темная Лига справедливости: Война Апоколипса / Justice League Dark: Apokolips War [2020 Мультфильм BDRip 1080p] DUB bober100 Скачать
6 | 1
Зарубежные Мультфильмы (BDRip 1080p, 720p, Blu-ray, BD-Remux) [ 4.55 GB ] Темная Лига справедливости: Война Апоколипса / Justice League Dark: Apokolips War [2020 Мультфильм BDRip 720p] DUB bober100 Скачать
15 | 0
Иностранные мультфильмы [ 1.42 GB ] Темная Лига справедливости: Война Апоколипса / Justice League Dark: Apokolips War [2020 Мультфильм BDRip] bober100 Скачать
10 | 0

28-11-2019 20:33  

Отключить всю рекламу на сайте

    Дорогой пользователь! Огромная просьба, поблагодарите релизера, оцените раздачу и оставьте свои комментарий, если Вы скачали Темная Лига справедливости: Война Апоколипса через торрент бесплатно! Внесите свою лепту в развитие PiratBit!
    Комментировать посты могут только пользователи прошедшие не сложную регистрацию
    Показать сообщения:    

    Темная Лига справедливости: Война Апоколипса через торрент
    Скачать бесплатно Темная Лига справедливости: Война Апоколипса
    Темная Лига справедливости: Война Апоколипса скачать торрент
    Темная Лига справедливости: Война Апоколипса смотреть онлайн
    Cкачать фильм Темная Лига справедливости: Война Апоколипса бесплатно
    Темная Лига справедливости: Война Апоколипса скачать торрент в хорошем качестве
    Темная Лига справедливости: Война Апоколипса смотреть онлайн бесплатно в хорошем качестве


    Вы не можете начинать темы
    Вы не можете отвечать на сообщения
    Вы не можете редактировать свои сообщения
    Вы не можете удалять свои сообщения
    Вы не можете голосовать в опросах
    Вы не можете прикреплять файлы к сообщениям
    Вы можете скачивать файлы