2 сезон

iTunes

MVO

1

2 сезон

iTunes

1 сезон

1 сезон

RePack

30

Ultimate

ВАЖНО

ИГРА 18+

pack

RePack

MK11
pack

Легкие деньги

RePack

jed

RePack

fifa19

RePack

RDR2

RePack

NEED FOR SPEED™ PAYBACK

4 сезон

9 сезон

Бесстыжие 9 сезон

Все сериалы

все сериалы на PB.wtf

RePack

FAR CRY 5

Anonymous, добрый вечер, мы не успеваем собрать деньги на оплату серверов за декабрь и январь, помогите нам пожалуйста в это трудное время. В качестве благодарности мы отключим Вам всю рекламу на сайте (укажите свой ник в строку Ваше имя)!

×
  
Magnet ссылка

Станция «Сеул» / Seoul Station (Ён Сан-хо) [2016, Мультфильм, ужасы, BDRip 1080p] MVO [IVI] piratbit.org

Станция «Сеул» через торрент piratbit.org

Раздают: 1 [ 0 KB/s ]
Размер: 4.62 GB | Добавлен: 1 мес. 9 д. назад | Торрент скачан:27 раз
Скачать  

19-12-2020 09:44 Станция «Сеул» Скачать торрент  

Станция «Сеул» | Seoul Station
Год выпуска: 2016
Страна: Южная Корея
Выпущено: Next Entertainment World, Studio Dadashow
Жанр: Мультфильм, ужасы
Продолжительность: 01:32:10
Перевод: Профессиональный (многоголосый) | Звук с онлайн-кинотеатра IVI
Субтитры: Английские

Режиссер: Ён Сан-хо

rating

В ролях: Рю Сын-рён, Щим Ын-гён, Ли Джун, Ким Джэ-рок, Чан Хёк-чин, Ким Джон-су, Мён Сын-хун, Хван Сок-чон, Ли Сан-хи

Описание: Анимационный корейский фильм, выпущенный, как дополнение к самому сильному зомби-экшен фильму этого года "Поезд в Пусан". До того как группа спасшихся в поезде приехала на станцию Сеул, в городе уже во всю свирепствовал вирус. Как и все работы режиссера Ён Сан Хо, этот фильм направлен на обнажение человеческой природы и социальных проблем в обществе, зомби здесь выступают как катализатор облачения истинных человеческих пороков.

Качество: BDRip 1080p
Формат: MKV

Видео: MPEG-4 AVC, 6021 Кb/s, 1920x1040, 24.000 fps
Аудио#1 Russian: 48 kHz, AC3 Dolby Digital, 2/0 (L, R) ch, ~384 Kbps | IVI
Аудио#2 Korean: 48 kHz, Digital Theater Systems, 3/2 (L, C, R, l, r) + LFE ch, ~768 Kbps | Original
скриншот  скриншот  скриншот  скриншот  

Complete name : Seoul.Station.2016.1080p.BDRip.ELEKTRI4KA.UNIONGANG.mkv
Format : Matroska
Format version : Version 4 / Version 2
File size : 4.62 GiB
Duration : 1 h 32 min
Overall bit rate : 7 175 kb/s
Movie name : .ELEKTRI4KA.UNIONGANG.
Encoded date : UTC 2020-12-17 21:36:14
Writing application : mkvmerge v8.3.0 ('Over the Horizon') 64bit
Writing library : libebml v1.3.1 + libmatroska v1.4.2

Video
ID : 1
Format : AVC
Format/Info : Advanced Video Codec
Format profile : High@L4.1
Format settings, CABAC : Yes
Format settings, Reference frames : 4 frames
Codec ID : V_MPEG4/ISO/AVC
Duration : 1 h 32 min
Bit rate : 6 021 kb/s
Width : 1 920 pixels
Height : 1 040 pixels
Display aspect ratio : 1.85:1
Frame rate mode : Constant
Frame rate : 24.000 FPS
Color space : YUV
Chroma subsampling : 4:2:0
Bit depth : 8 bits
Scan type : Progressive
Bits/(Pixel*Frame) : 0.126
Stream size : 3.88 GiB (84%)
Writing library : x264 core 148 r2744 b97ae06
Encoding settings : cabac=1 / ref=4 / deblock=1:-3:-3 / analyse=0x3:0x133 / me=umh / subme=9 / psy=1 / psy_rd=1.00:0.00 / mixed_ref=1 / me_range=16 / chroma_me=1 / trellis=2 / 8x8dct=1 / cqm=0 / deadzone=21, 11 / fast_pskip=0 / chroma_qp_offset=-2 / threads=18 / lookahead_threads=1 / sliced_threads=0 / nr=0 / decimate=1 / interlaced=0 / bluray_compat=0 / constrained_intra=0 / bframes=3 / b_pyramid=2 / b_adapt=1 / b_bias=0 / direct=3 / weightb=1 / open_gop=0 / weightp=2 / keyint=250 / keyint_min=24 / scenecut=40 / intra_refresh=0 / rc_lookahead=50 / rc=2pass / mbtree=1 / bitrate=6021 / ratetol=1.0 / qcomp=0.60 / qpmin=0 / qpmax=69 / qpstep=4 / cplxblur=20.0 / qblur=0.5 / ip_ratio=1.40 / aq=1:1.00
Language : English
Default : Yes
Forced : No

Audio #1
ID : 2
Format : AC-3
Format/Info : Audio Coding 3
Mode extension : CM (complete main)
Format settings, Endianness : Big
Codec ID : A_AC3
Duration : 1 h 32 min
Bit rate mode : Constant
Bit rate : 384 kb/s
Channel(s) : 2 channels
Channel positions : Front: L R
Sampling rate : 48.0 kHz
Frame rate : 31.250 FPS (1536 spf)
Bit depth : 16 bits
Compression mode : Lossy
Stream size : 253 MiB (5%)
Title : MVO (IVI)
Language : Russian
Default : Yes
Forced : Yes

Audio #2
ID : 3
Format : DTS
Format/Info : Digital Theater Systems
Mode : 16
Format settings, Endianness : Big
Codec ID : A_DTS
Duration : 1 h 32 min
Bit rate mode : Constant
Bit rate : 768 kb/s
Channel(s) : 6 channels
Channel positions : Front: L C R, Side: L R, LFE
Sampling rate : 48.0 kHz
Frame rate : 93.750 FPS (512 spf)
Bit depth : 24 bits
Compression mode : Lossy
Stream size : 506 MiB (11%)
Title : Original
Language : Korean
Default : No
Forced : No

Text
ID : 4
Format : UTF-8
Codec ID : S_TEXT/UTF8
Codec ID/Info : UTF-8 Plain Text
Duration : 1 h 29 min
Bit rate : 30 b/s
Count of elements : 851
Stream size : 19.9 KiB (0%)
Language : English
Default : No
Forced : No

Menu
00:00:00.000 : en:00:00:00.000
00:07:57.292 : en:00:07:57.292
00:15:03.333 : en:00:15:03.333
00:24:05.417 : en:00:24:05.417
00:31:32.833 : en:00:31:32.833
00:39:26.833 : en:00:39:26.833
00:45:43.958 : en:00:45:43.958
00:53:44.042 : en:00:53:44.042
01:01:18.792 : en:01:01:18.792
01:07:47.958 : en:01:07:47.958
01:16:14.542 : en:01:16:14.542
01:24:05.667 : en:01:24:05.667

piratbit.org



Скачать Станция «Сеул» через торрент https://c.radikal.ru/c35/2012/2e/2eb5b52befeb.png Скачать фильм Станция «Сеул» через торрент бесплантно в хорошем качестве Описание: Анимационный корейский фильм, выпущенный, как дополнение к самому сильному зомби-экшен фильму этого года "Поезд в Пусан". До того ... 10 10 2
Торрент: Зарегистрирован [2020-12-19 09:44] · скачан: 27 раз
Статус: √ проверено
Размер: 4.62 GB
Как cкачать? Как скачать Станция «Сеул» через торрент | UTorrent

28-11-2019 20:33  

Отключить всю рекламу на сайте

    Дорогой пользователь! Огромная просьба, поблагодарите релизера, оцените раздачу и оставьте свои комментарий, если Вы скачали Станция «Сеул» через торрент бесплатно! Внесите свою лепту в развитие PiratBit!
    Комментировать посты могут только пользователи прошедшие не сложную регистрацию
    Показать сообщения:    

    Станция «Сеул» через торрент
    Скачать бесплатно Станция «Сеул»
    Станция «Сеул» скачать торрент
    Станция «Сеул» смотреть онлайн
    Cкачать фильм Станция «Сеул» бесплатно
    Станция «Сеул» скачать торрент в хорошем качестве
    Станция «Сеул» смотреть онлайн бесплатно в хорошем качестве


    Вы не можете начинать темы
    Вы не можете отвечать на сообщения
    Вы не можете редактировать свои сообщения
    Вы не можете удалять свои сообщения
    Вы не можете голосовать в опросах
    Вы не можете прикреплять файлы к сообщениям
    Вы можете скачивать файлы