2 сезон

iTunes

MVO

1

2 сезон

iTunes

iTunes

1 сезон

RePack

30

Новинка

ВАЖНО

ИГРА 18+

pack

RePack

MK11
pack

Легкие деньги

RePack

jed

RePack

fifa19

RePack

RDR2

RePack

NEED FOR SPEED™ PAYBACK

4 сезон

9 сезон

Бесстыжие 9 сезон

Все сериалы

все сериалы на PB.wtf

RePack

FAR CRY 5

Anonymous, добрый день, мы не успеваем собрать деньги на оплату серверов за декабрь и январь, помогите нам пожалуйста в это трудное время. В качестве благодарности мы отключим Вам всю рекламу на сайте (укажите свой ник в строку Ваше имя)!

×
  
Magnet ссылка

Противостояние / The Stand / Сезон: 1 / Серии: 1-5 из 9 (Джош Бун, Бриджет Паларди, Даниэль Круди) [2020, Ужасы, фантастика, фэнтези, триллер, приключения, WEB-DLRip] MVO [TVShows] piratbit.org

Противостояние через торрент piratbit.org

Раздают: 2 [ 507 KB/s ] Качают: 4 [ 0 KB/s ]
Размер: 3.77 GB | Добавлен: 21 ч. назад | Торрент скачан:7 раз
Скачать  

19-12-2020 20:39 Противостояние Скачать торрент  

Противостояние | The Stand
Год выпуска: 2020
Страна: США
Студия: CBS Television Studios, Mosaic Media Group, Vertigo Entertainment
Жанр: Ужасы, фантастика, фэнтези, триллер, драма, приключения
Продолжительность: ~ 00:59:00
Перевод: Профессиональный (многоголосый) | TVShows
Субтитры: отсутствуют

Режиссер: Джош Бун, Бриджет Паларди, Даниэль Круди

rating

В ролях: Джеймс Марсден, Джован Адепо, Вупи Голдберг, Эмбер Хёрд, Брэд Уильям Хенке, Кэтрин МакНамара, Александр Скарсгард, Дэниел Сунджата, Оуэн Тиг, Нат Вулф и другие.

Описание: Экранизаций Стивена Кинга много не бывает! «Противостояние» — захватывающая дух история о мире, где от вируса вымирает 99% населения. На осколках цивилизации возникает некий Рэндалл Флегг, которого называют посланником дьявола. Он собирает свою паству, однако ему противостоит «Свободная зона» — комьюнити под предводительством Матушки Абигейл, женщины, способной призывать к себе людей во снах. Главные роли исполнили Александр Скарсгард и Вупи Голдберг, а в списке режиссеров значатся Винченцо Натали («Куб», «Кодер») и Джош Бун («Виноваты звезды», «Новые мутанты»).

Качество: WEB-DLRip
Формат: AVI

Видео: 720x304, ~ 1600 Кбит/сек, 24,000 fps
Аудио: AC3, 2 ch, 192 Кбит/с
скриншот  скриншот  скриншот  скриншот  скриншот  

Общее
Полное имя : C:\The.Stand .2020. WEBDLRip.TVShows\01. The.Stand .2020. WEBDLRip.TVShows.avi
Формат : AVI
Формат/Информация : Audio Video Interleave
Размер файла : 763 Мбайт
Продолжительность : 59 м. 16 с.
Общий поток : 1800 Кбит/сек
Программа кодирования : VirtualDubMod 1.5.10.3 | www.virtualdub-fr.org || (build 2550/release)
Библиотека кодирования : VirtualDubMod build 2550/release

Видео
Идентификатор : 0
Формат : MPEG-4 Visual
Профиль формата : Advanced Simple@L5
Параметр BVOP формата : 2
Параметр QPel формата : Нет
Параметр GMC формата : Без точки перехода
Параметр матрицы формата : Выборочная
Идентификатор кодека : XVID
Идентификатор кодека/Подсказка : XviD
Продолжительность : 59 м. 16 с.
Битрейт : 1528 Кбит/сек
Ширина : 720 пикселей
Высота : 304 пикселя
Соотношение сторон : 2,35:1
Частота кадров : 24,000 кадра/сек
Цветовое пространство : YUV
Субдискретизация насыщенности : 4:2:0
Битовая глубина : 8 бит
Тип развёртки : Прогрессивная
Метод сжатия : С потерями
Бит/(Пиксели*Кадры) : 0.291
Размер потока : 648 Мбайт (85%)
Библиотека кодирования : XviD 73

Аудио
Идентификатор : 1
Формат : AC-3
Формат/Информация : Audio Coding 3
Расширение режима : CM (complete main)
Параметр Endianness формата : Big
Идентификатор кодека : 2000
Продолжительность : 59 м. 16 с.
Вид битрейта : Постоянный
Битрейт : 192 Кбит/сек
Каналы : 2 канала
Расположение каналов : Front: L R
Частота : 48,0 КГц
Частота кадров : 31,250 кадров/сек (1536 spf)
Метод сжатия : С потерями
Размер потока : 81,4 Мбайт (11%)
Выравнивание : Разделение по промежуткам

Внимание! Раздача ведётся путём добавления новых серий; при каждом добавлении создаётся новый торрент.
Чтобы начать докачку новой серии, пользователям необходимо сделать следующее:
1. Остановить скачивание;
2. Удалить старый торрент у себя из клиента (старые серии удалять не надо);
3. Скачать новый торрент и запустить его у себя в клиенте вместо старого, при этом указать клиенту путь в старую папку куда и должно происходить скачивание новых серий. Ваш клиент при этом должен произвести хеширование (проверку) старой папки и будет докачивать только те серии, которых у вас ещё нет. Старые серии при этом не удаляются, а продолжают раздаваться! Eсли вы уже удалили старые серии, то предотвратить повторную закачку старых серий можно, отжав галочку в соответствующих местах при запуске нового торрента.

piratbit.org



Скачать Противостояние через торрент https://img11.lostpic.net/2020/12/17/9bc6f62b918e3c9696738c626bc11429.th.jpg Скачать фильм Противостояние через торрент бесплантно в хорошем качестве Описание: Экранизаций Стивена Кинга много не бывает! «Противостояние» — захватывающая дух история о мире, где от вируса вымирает 99% ... 10 10 6
Торрент: Зарегистрирован [2021-01-18 14:26] · скачан: 7 раз
Статус: √ проверено
Размер: 3.77 GB
Как cкачать? Как скачать Противостояние через торрент | UTorrent

% Раздел Тема Автор DL S | L
Зарубежные сериалы [ 4.1 GB ] Противостояние / The Stand / Сезон: 1 / Серии: 1-5 из 9 [2020 WEB-DLRip] MVO [LostFilm] bober100 Скачать
7 | 5
Зарубежные сериалы [ 14.76 GB ] Противостояние / The Stand / Сезон: 1 / Серии: 1-5 из 9 [2020 WEB-DL 1080p] MVO [LostFilm] bober100 Скачать
7 | 4
Зарубежные сериалы [ 19.5 GB ] Противостояние / The Stand / Сезон: 1 / Серии: 1-5 из 9 [2020 WEB-DL 1080p] 3xMVO [Кравец-Рекордз / Amedia TVShows HDRezka Studio] bober100 Скачать
5 | 3
* Зарубежные сериалы [ 4.72 GB ] Противостояние / The Stand / Сезон: 1 / Серии: 1-5 из 9 [2020 WEB-DLRip-AVC] MVO [LostFilm] GEKADOL Скачать
2 | 4
* Зарубежные сериалы [ 6.03 GB ] Противостояние / The Stand / Сезон: 1 / Серии: 1-5 из 9 [2020 WEB-DLRip-AVC] 2xMVO [Кравец-Рекордз / Amedia HDRezka Studio] GEKADOL Скачать
4 | 9
Зарубежные сериалы [ 4.26 GB ] Противостояние / The Stand / Сезон: 1 / Серии: 1-5 из 9 [2020 WEB-DLRip] MVO [Кравец-Рекордз / Amedia] bober100 Скачать
5 | 3

28-11-2019 20:33  

Отключить всю рекламу на сайте

    Дорогой пользователь! Огромная просьба, поблагодарите релизера, оцените раздачу и оставьте свои комментарий, если Вы скачали Противостояние через торрент бесплатно! Внесите свою лепту в развитие PiratBit!
    Комментировать посты могут только пользователи прошедшие не сложную регистрацию
    Показать сообщения:    

    Противостояние через торрент
    Скачать бесплатно Противостояние
    Противостояние скачать торрент
    Противостояние смотреть онлайн
    Cкачать фильм Противостояние бесплатно
    Противостояние скачать торрент в хорошем качестве
    Противостояние смотреть онлайн бесплатно в хорошем качестве


    Вы не можете начинать темы
    Вы не можете отвечать на сообщения
    Вы не можете редактировать свои сообщения
    Вы не можете удалять свои сообщения
    Вы не можете голосовать в опросах
    Вы не можете прикреплять файлы к сообщениям
    Вы можете скачивать файлы