1 сезон

1 сезон

iTunes

1

КиноПоиск HD

Кинопоиск HD

iTunes

13

1 сезон

RePack

30

Ultimate

ВАЖНО

ИГРА 18+

pack

RePack

MK11
pack

Легкие деньги

RePack

jed

RePack

fifa19

RePack

RDR2

RePack

NEED FOR SPEED™ PAYBACK

4 сезон

9 сезон

Бесстыжие 9 сезон

Все сериалы

все сериалы на PB.wtf

RePack

FAR CRY 5
  
Magnet ссылка

Армагеддон / Armageddon (Майкл Бэй) [1998 г., фантастика, боевик, триллер, приключения, BDRip (HEVC)1080p] [DUB] + 5X[MVO] (Rus, Ukr)+ [DVO] (Ukr)+ 3x[AVO] piratbit.org

Армагеддон через торрент piratbit.org

Раздают: 2 [ 0 KB/s ]
Размер: 6.92 GB | Добавлен: 16 д. назад | Торрент скачан:31 раз
Скачать  

20-12-2020 11:00 Армагеддон Скачать торрент  

Армагеддон / Armageddon
Год выпуска: 1998
Страна: США
Жанр: фантастика, боевик, триллер, приключения
Продолжительность: 02:30:50
Перевод #1: Профессиональный (полное дублирование) Blu-ray CEE
Перевод #2: Профессиональный (многоголосый) ОРТ
Перевод #3: Профессиональный (многоголосый) Киномания
Перевод #4: Профессиональный (многоголосый) СуперБит
Перевод #5: Украинский профессиональный (многоголосый) Новый канал
Перевод #6: Украинский профессиональный (многоголосый) ICTV
Перевод #7: Украинский профессиональный (двухголосый) 1+1
Перевод #8: Авторский (одноголосый закадровый) - Андрей Гаврилов
Перевод #9: Авторский (одноголосый закадровый) - Юрий Сербин
Перевод #10: Авторский (одноголосый закадровый) - Сергей Визгунов

Субтитры: нет

Режиссер: Майкл Бэй / Michael Bay

В ролях: Брюс Уиллис, Бен Аффлек, Лив Тайлер, Уилл Пэттон, Билли Боб Торнтон, Стив Бушеми, Уильям Фихтнер, Оуэн Уилсон, Майкл Кларк Дункан, Петер Стормаре, Кен Хадсон Кэмпбелл, Джессика Стин.

Описание: Тень гигантского астероида легла на Землю. До рокового столкновения остаются считанные дни. Наступает Армагеддон, трагический финал мировой истории. Чтобы предотвратить катастрофу, необходимо чудо — или совместные усилия лучших из лучших вместе с технологической мощью всего созданного человеком. Сможет ли горстка людей противостоять вселенской стихии?..



Качество видео: BDRip (HEVC) 1080p
Формат: MKV
Видео кодек: x.265
Аудио кодек: AC3
Видео: HEVC/H.265, 1920x800, 23,976 fps, ~3361 Kbps, 8 bit
Аудио #1: 48 kHz, AC3 Dolby Digital, 6 ch, ~448.00 kbps avg - DUB
Аудио #2: 48 kHz, AC3 Dolby Digital, 2 ch, ~192.00 kbps avg - ОРТ
Аудио #3: 48 kHz, AC3 Dolby Digital, 6 ch, ~384.00 kbps avg - Киномания
Аудио #4: 48 kHz, AC3 Dolby Digital, 6 ch, ~448.00 kbps avg - СуперБит
Аудио #5: 48 kHz, AC3 Dolby Digital, 2 ch, ~192.00 kbps avg - украинский / Новый Канал
Аудио #6: 48 kHz, AC3 Dolby Digital, 2 ch, ~192.00 kbps avg - украинский / ICTV
Аудио #7: 48 kHz, AC3 Dolby Digital, 2 ch, ~192.00 kbps avg - украинский / 1+1
Аудио #8: 48 kHz, AC3 Dolby Digital, 6 ch, ~448.00 kbps avg - А.Гаврилов
Аудио #9: 48 kHz, AC3 Dolby Digital, 6 ch, ~384.00 kbps avg - Ю.Сербин
Аудио #10: 48 kHz, AC3 Dolby Digital, 2 ch, ~192.00 kbps avg - С.Визгунов
General
Unique ID : 231070561499493181806922738009424895994 (0xADD6924507DAD2BB8AE8B6B5997D9FFA)
Complete name : G:\ФИЛЬМЫ\Armageddon.1998.BDRip (HEVC)1080p.[DUB], 3x[MVO], 3x[Ukr], 3x[AVO].xz.mkv
Format : Matroska
Format version : Version 4
File size : 6.92 GiB
Duration : 2 h 30 min
Overall bit rate : 6 563 kb/s
Movie name : Armageddon.1998.BDRip (HEVC)1080p.[DUB], 3x[MVO], 3x[Ukr], 3x[AVO].xz
Encoded date : UTC 2020-12-20 10:17:34 / UTC 2018-12-19T00:34:23Z
Writing application : mkvmerge v6.1.0 ('Old Devil') built on Mar 2 2013 14:32:37
Writing library : libebml v1.3.0 + libmatroska v1.4.0 / Lavf57.7.2

Video
ID : 1
Format : HEVC
Format/Info : High Efficiency Video Coding
Format profile : Main@L4@Main
Codec ID : V_MPEGH/ISO/HEVC
Duration : 2 h 30 min
Bit rate : 3 361 kb/s
Width : 1 920 pixels
Height : 800 pixels
Display aspect ratio : 2.40:1
Frame rate mode : Constant
Frame rate : 23.976 (24000/1001) FPS
Color space : YUV
Chroma subsampling : 4:2:0
Bit depth : 8 bits
Bits/(Pixel*Frame) : 0.091
Stream size : 3.54 GiB (51%)
Title : Armageddon.1998.BDRip (HEVC)1080p.[DUB], 3x[MVO], 3x[Ukr], 3x[AVO].xz
Writing library : x265 2.6:[Windows][GCC 7.3.0][64 bit] 8bit+10bit+12bit
Encoding settings : cpuid=1105919 / frame-threads=2 / numa-pools=6 / wpp / no-pmode / no-pme / no-psnr / no-ssim / log-level=2 / input-csp=1 / input-res=1920x800 / interlace=0 / total-frames=0 / level-idc=0 / high-tier=1 / uhd-bd=0 / ref=2 / no-allow-non-conformance / no-repeat-headers / annexb / no-aud / no-hrd / info / hash=0 / no-temporal-layers / open-gop / min-keyint=24 / keyint=240 / bframes=4 / b-adapt=0 / b-pyramid / bframe-bias=0 / rc-lookahead=15 / lookahead-slices=5 / scenecut=40 / no-intra-refresh / ctu=64 / min-cu-size=8 / no-rect / no-amp / max-tu-size=32 / tu-inter-depth=1 / tu-intra-depth=1 / limit-tu=0 / rdoq-level=0 / dynamic-rd=0.00 / no-ssim-rd / signhide / no-tskip / nr-intra=0 / nr-inter=0 / no-constrained-intra / strong-intra-smoothing / max-merge=2 / limit-refs=3 / no-limit-modes / me=1 / subme=1 / merange=57 / temporal-mvp / weightp / no-weightb / no-analyze-src-pics / deblock=0:0 / sao / no-sao-non-deblock / rd=2 / early-skip / rskip / fast-intra / no-tskip-fast / no-cu-lossless / no-b-intra / no-splitrd-skip / rdpenalty=0 / psy-rd=2.00 / psy-rdoq=0.00 / no-rd-refine / analysis-reuse-mode=0 / no-lossless / cbqpoffs=0 / crqpoffs=0 / rc=crf / crf=20.0 / qcomp=0.60 / qpstep=4 / stats-write=0 / stats-read=0 / ipratio=1.40 / pbratio=1.30 / aq-mode=1 / aq-strength=1.00 / cutree / zone-count=0 / no-strict-cbr / qg-size=32 / no-rc-grain / qpmax=69 / qpmin=0 / no-const-vbv / sar=1 / overscan=0 / videoformat=5 / range=0 / colorprim=1 / transfer=1 / colormatrix=1 / chromaloc=0 / display-window=0 / max-cll=0,0 / min-luma=0 / max-luma=255 / log2-max-poc-lsb=8 / vui-timing-info / vui-hrd-info / slices=1 / no-opt-qp-pps / no-opt-ref-list-length-pps / no-multi-pass-opt-rps / scenecut-bias=0.05 / no-opt-cu-delta-qp / no-aq-motion / no-hdr / no-hdr-opt / no-dhdr10-opt / analysis-reuse-level=5 / scale-factor=0 / refine-intra=0 / refine-inter=0 / refine-mv=0 / no-limit-sao / ctu-info=0 / no-lowpass-dct / refine-mv-type=0 / copy-pic=1
Default : Yes
Forced : No
Color range : Limited
Color primaries : BT.709
Transfer characteristics : BT.709
Matrix coefficients : BT.709
Duration_Source : General_Duration

Audio #1
ID : 2
Format : AC-3
Format/Info : Audio Coding 3
Commercial name : Dolby Digital
Codec ID : A_AC3
Duration : 2 h 30 min
Bit rate mode : Constant
Bit rate : 448 kb/s
Channel(s) : 6 channels
Channel layout : L R C LFE Ls Rs
Sampling rate : 48.0 kHz
Frame rate : 31.250 FPS (1536 SPF)
Compression mode : Lossy
Delay relative to video : -5 ms
Stream size : 483 MiB (7%)
Title : DUB
Language : Russian
Service kind : Complete Main
Default : Yes
Forced : No
Duration_Source : General_Duration

Audio #2
ID : 3
Format : AC-3
Format/Info : Audio Coding 3
Commercial name : Dolby Digital
Codec ID : A_AC3
Duration : 2 h 30 min
Bit rate mode : Constant
Bit rate : 192 kb/s
Channel(s) : 2 channels
Channel layout : L R
Sampling rate : 48.0 kHz
Frame rate : 31.250 FPS (1536 SPF)
Compression mode : Lossy
Delay relative to video : -5 ms
Stream size : 207 MiB (3%)
Title : OPT
Language : Russian
Service kind : Complete Main
Default : No
Forced : No
Duration_Source : General_Duration

Audio #3
ID : 4
Format : AC-3
Format/Info : Audio Coding 3
Commercial name : Dolby Digital
Codec ID : A_AC3
Duration : 2 h 30 min
Bit rate mode : Constant
Bit rate : 384 kb/s
Channel(s) : 6 channels
Channel layout : L R C LFE Ls Rs
Sampling rate : 48.0 kHz
Frame rate : 31.250 FPS (1536 SPF)
Compression mode : Lossy
Delay relative to video : -5 ms
Stream size : 414 MiB (6%)
Title : Kinomaniya
Language : Russian
Service kind : Complete Main
Default : No
Forced : No
Duration_Source : General_Duration

Audio #4
ID : 5
Format : AC-3
Format/Info : Audio Coding 3
Commercial name : Dolby Digital
Codec ID : A_AC3
Duration : 2 h 30 min
Bit rate mode : Constant
Bit rate : 448 kb/s
Channel(s) : 6 channels
Channel layout : L R C LFE Ls Rs
Sampling rate : 48.0 kHz
Frame rate : 31.250 FPS (1536 SPF)
Compression mode : Lossy
Delay relative to video : -5 ms
Stream size : 483 MiB (7%)
Title : SuperBit
Language : Russian
Service kind : Complete Main
Default : No
Forced : No
Duration_Source : General_Duration

Audio #5
ID : 6
Format : AC-3
Format/Info : Audio Coding 3
Commercial name : Dolby Digital
Codec ID : A_AC3
Duration : 2 h 30 min
Bit rate mode : Constant
Bit rate : 192 kb/s
Channel(s) : 2 channels
Channel layout : L R
Sampling rate : 48.0 kHz
Frame rate : 31.250 FPS (1536 SPF)
Compression mode : Lossy
Delay relative to video : -5 ms
Stream size : 207 MiB (3%)
Title : Ukr_Novyj Kanal
Language : Ukrainian
Service kind : Complete Main
Default : No
Forced : No
Duration_Source : General_Duration

Audio #6
ID : 7
Format : AC-3
Format/Info : Audio Coding 3
Commercial name : Dolby Digital
Codec ID : A_AC3
Duration : 2 h 30 min
Bit rate mode : Constant
Bit rate : 192 kb/s
Channel(s) : 2 channels
Channel layout : L R
Sampling rate : 48.0 kHz
Frame rate : 31.250 FPS (1536 SPF)
Compression mode : Lossy
Delay relative to video : -5 ms
Stream size : 207 MiB (3%)
Title : UKR_ICTV
Language : Ukrainian
Service kind : Complete Main
Default : No
Forced : No
Duration_Source : General_Duration

Audio #7
ID : 8
Format : AC-3
Format/Info : Audio Coding 3
Commercial name : Dolby Digital
Codec ID : A_AC3
Duration : 2 h 30 min
Bit rate mode : Constant
Bit rate : 192 kb/s
Channel(s) : 2 channels
Channel layout : L R
Sampling rate : 48.0 kHz
Frame rate : 31.250 FPS (1536 SPF)
Compression mode : Lossy
Delay relative to video : -5 ms
Stream size : 207 MiB (3%)
Title : UKR_1+1
Language : Ukrainian
Service kind : Complete Main
Default : No
Forced : No
Duration_Source : General_Duration

Audio #8
ID : 9
Format : AC-3
Format/Info : Audio Coding 3
Commercial name : Dolby Digital
Codec ID : A_AC3
Duration : 2 h 30 min
Bit rate mode : Constant
Bit rate : 448 kb/s
Channel(s) : 6 channels
Channel layout : L R C LFE Ls Rs
Sampling rate : 48.0 kHz
Frame rate : 31.250 FPS (1536 SPF)
Compression mode : Lossy
Delay relative to video : -5 ms
Stream size : 483 MiB (7%)
Title : Gavrilov
Language : Russian
Service kind : Complete Main
Default : No
Forced : No
Duration_Source : General_Duration

Audio #9
ID : 10
Format : AC-3
Format/Info : Audio Coding 3
Commercial name : Dolby Digital
Codec ID : A_AC3
Duration : 2 h 30 min
Bit rate mode : Constant
Bit rate : 384 kb/s
Channel(s) : 6 channels
Channel layout : L R C LFE Ls Rs
Sampling rate : 48.0 kHz
Frame rate : 31.250 FPS (1536 SPF)
Compression mode : Lossy
Delay relative to video : -5 ms
Stream size : 414 MiB (6%)
Title : Serbin
Language : Russian
Service kind : Complete Main
Default : No
Forced : No
Duration_Source : General_Duration

Audio #10
ID : 11
Format : AC-3
Format/Info : Audio Coding 3
Commercial name : Dolby Digital
Codec ID : A_AC3
Duration : 2 h 30 min
Bit rate mode : Constant
Bit rate : 192 kb/s
Channel(s) : 2 channels
Channel layout : L R
Sampling rate : 48.0 kHz
Frame rate : 31.250 FPS (1536 SPF)
Compression mode : Lossy
Delay relative to video : -5 ms
Stream size : 207 MiB (3%)
Title : Vizgunov
Language : Russian
Service kind : Complete Main
Default : No
Forced : No
Duration_Source : General_Duration

Menu
00:00:00.000 : :Chapter 1
00:06:21.256 : :Chapter 2
00:11:56.299 : :Chapter 3
00:23:14.602 : :Chapter 4
00:28:47.059 : :Chapter 5
00:35:30.587 : :Chapter 6
00:39:57.520 : :Chapter 7
00:45:55.836 : :Chapter 8
00:48:40.709 : :Chapter 9
00:51:19.535 : :Chapter 10
00:56:26.925 : :Chapter 11
00:59:10.839 : :Chapter 12
01:07:15.406 : :Chapter 13
01:11:16.647 : :Chapter 14
01:21:02.816 : :Chapter 15
01:24:10.629 : :Chapter 16
01:32:42.682 : :Chapter 17
01:41:15.194 : :Chapter 18
01:51:56.084 : :Chapter 19
01:55:56.158 : :Chapter 20
01:59:27.535 : :Chapter 21
02:00:37.272 : :Chapter 22
02:05:21.431 : :Chapter 23
02:08:14.604 : :Chapter 24
02:12:50.838 : :Chapter 25
02:15:00.342 : :Chapter 26
02:23:56.086 : :Chapter 27
скриншот   скриншот   скриншот   скриншот   скриншот  
piratbit.org



Скачать Армагеддон через торрент http://i64.fastpic.ru/big/2014/1010/be/9f53c27f3b3dc4e521df49b56d1bccbe.jpg Скачать фильм Армагеддон через торрент бесплантно в хорошем качестве Описание: Тень гигантского астероида легла на Землю. До рокового столкновения остаются считанные дни. Наступает Армагеддон, трагический ... 10 10 8
Торрент: Зарегистрирован [2021-04-04 19:55] · скачан: 31 раз
Статус: √ проверено
Размер: 6.92 GB
Как cкачать? Как скачать Армагеддон через торрент | UTorrent

% Раздел Тема Автор DL S | L
Фильмы [HD 720p, 1080p] (Хороший звук DUB, MVO) [ 6.78 GB ] Чернокнижник 2: Армагеддон / Warlock: The Armageddon [1993 BDRip-HEVC 1080p ] DUB+2xMVO+3xAVO bober100 Скачать
1 | 0
Фильмы с авторской озвучкой [ 2.19 GB ] Армагеддон / Armageddon [1998 BDRip] 2x[AVO] killermax2013 Скачать
1 | 0

28-11-2019 20:33  

Отключить всю рекламу на сайте

    Дорогой пользователь! Огромная просьба, поблагодарите релизера, оцените раздачу и оставьте свои комментарий, если Вы скачали Армагеддон через торрент бесплатно! Внесите свою лепту в развитие PiratBit!
    Комментировать посты могут только пользователи прошедшие не сложную регистрацию
    Показать сообщения:    

    Армагеддон через торрент
    Скачать бесплатно Армагеддон
    Армагеддон скачать торрент
    Армагеддон смотреть онлайн
    Cкачать фильм Армагеддон бесплатно
    Армагеддон скачать торрент в хорошем качестве
    Армагеддон смотреть онлайн бесплатно в хорошем качестве


    Вы не можете начинать темы
    Вы не можете отвечать на сообщения
    Вы не можете редактировать свои сообщения
    Вы не можете удалять свои сообщения
    Вы не можете голосовать в опросах
    Вы не можете прикреплять файлы к сообщениям
    Вы можете скачивать файлы