Достать ножи: Стеклянная луковица

MVO

Добыча

Дубляж

Уэнсдэй

1 сезон

Тор

Дубляж

13 клиническая

1 сезон

Жестокая ночь

MVO

Одни из нас

1 сезон

Deluxe

pack

Рекомендуем

30

Пиратка

ВАЖНО

ВАЖНО

Ghostwire

Пиратка

jed

RePack

nioh2

RePack

RDR2

RePack

NEED FOR SPEED™ PAYBACK

RePack

скачать торрент

Кинопоиск HD

Острые козырьки 6 сезон

6 сезон

FAR CRY 6

RePack

скачать торрент

Лицензия

скачать торрент

MVO

1

1 сезон

скачать торрент

1 сезон

скачать торрент

Лицензия

  

Малышка с характером / The Doorman (Рюхэй Китамура) [2020, Боевик, триллер, UHD BDRemux 2160p, (SDR)] [GER Tansfer] Дубляж [iTunes]

Малышка с характером через торрент piratbit.org

Размер: 46.74 GB | Добавлен: 2 года 1 мес. назад | Торрент скачан:103 раза
Смотреть онлайн | Скачать | Поддержите нас   

24-12-2020 03:56 Малышка с характером Скачать торрент  

Малышка с характером | The Doorman
Год выпуска: 2020
Страна: США
Студия: Lionsgate, Anamorphic Media, Double Dutch International, Smash Media, CR8IV DNA
Жанр: Боевик, триллер
Продолжительность: 01:36:55
Перевод: Дублированный | iTunes
Субтитры: Английские

Режиссер: Рюхэй Китамура

rating

В ролях: Руби Роуз, Жан Рено, Аксель Хенни, Руперт Эванс, Джулиан Федер, Дэвид Сакурай, Луис Мэндилор, Хидэаки Ито, Кила Лорд Кэссиди, Филип Уитчёрч

Описание: В центре событий оказывается Эли Горски, служившая ранее в морской пехоте, а ныне работающая швейцаром в респектабельном отеле Нью-Йорка. Сыграла героиню Роуз. И именно ей придется выстроить грамотный план действий, дабы обвести вокруг пальца бандитов, возглавляемых жестоким лидером, которого сыграл Жан Рено. На протяжении всего времени девушке приходится обеспечивать защиту отеля, на который напали грабители, специализирующиеся на похищении произведений искусства.

Качество: UHD BDRemux 2160p | GER Tansfer
Формат: MKV

Видео: 3840x2160 at 23.976 fps, MPEG-H HEVC SDR Video, ~ 65300 kbps avg
Аудио #01: 48 kHz, AC3, 5.1, 384 Kbps | iTunes | RUS |
Аудио #02: 48 kHz, 48 kHz, DTS-HD MA, 5.1, 3386 Kbps | Оригинал | ENG |
скриншот  скриншот  скриншот  скриншот  скриншот  

General
Unique ID : 151564802468442673747435087230193627196 (0x720651B465FD0D469E11AEE4276BF03C)
Complete name : E:VideoFirstThe.Doorman.2020.BDREMUX.2160p.SDR.seleZen.mkv
Format : Matroska
Format version : Version 4
File size : 46.7 GiB
Duration : 1 h 36 min
Overall bit rate mode : Variable
Overall bit rate : 69.0 Mb/s
Movie name : The Doorman 2020 4K UHD from seleZen
Encoded date : UTC 2020-12-23 23:47:01
Writing application : mkvmerge v40.0.0 ('Old Town Road + Pony') 64-bit
Writing library : libebml v1.3.9 + libmatroska v1.5.2

Video
ID : 1
Format : HEVC
Format/Info : High Efficiency Video Coding
Format profile : Main 10@L5.1@High
Codec ID : V_MPEGH/ISO/HEVC
Duration : 1 h 36 min
Bit rate : 65.3 Mb/s
Width : 3 840 pixels
Height : 2 160 pixels
Display aspect ratio : 16:9
Frame rate mode : Constant
Frame rate : 23.976 (24000/1001) FPS
Color space : YUV
Chroma subsampling : 4:2:0
Bit depth : 10 bits
Bits/(Pixel*Frame) : 0.328
Stream size : 44.2 GiB (95%)
Language : English
Default : Yes
Forced : No
Color range : Limited
Color primaries : BT.709
Transfer characteristics : BT.709
Matrix coefficients : BT.709

Audio #1
ID : 2
Format : AC-3
Format/Info : Audio Coding 3
Commercial name : Dolby Digital
Codec ID : A_AC3
Duration : 1 h 36 min
Bit rate mode : Constant
Bit rate : 384 kb/s
Channel(s) : 6 channels
Channel layout : L R C LFE Ls Rs
Sampling rate : 48.0 kHz
Frame rate : 31.250 FPS (1536 SPF)
Compression mode : Lossy
Stream size : 266 MiB (1%)
Title : iTunes
Language : Russian
Service kind : Complete Main
Default : Yes
Forced : Yes

Audio #2
ID : 3
Format : DTS XLL
Format/Info : Digital Theater Systems
Commercial name : DTS-HD Master Audio
Codec ID : A_DTS
Duration : 1 h 36 min
Bit rate mode : Variable
Bit rate : 3 386 kb/s
Channel(s) : 6 channels
Channel layout : C L R Ls Rs LFE
Sampling rate : 48.0 kHz
Frame rate : 93.750 FPS (512 SPF)
Bit depth : 24 bits
Compression mode : Lossless
Stream size : 2.29 GiB (5%)
Title : Original
Language : English
Default : No
Forced : No

Text #1
ID : 4
Format : UTF-8
Codec ID : S_TEXT/UTF8
Codec ID/Info : UTF-8 Plain Text
Duration : 1 h 0 min
Bit rate : 0 b/s
Count of elements : 14
Stream size : 339 Bytes (0%)
Title : Forced
Language : English
Default : No
Forced : No

Text #2
ID : 5
Format : UTF-8
Codec ID : S_TEXT/UTF8
Codec ID/Info : UTF-8 Plain Text
Duration : 1 h 31 min
Bit rate : 48 b/s
Count of elements : 1080
Stream size : 32.6 KiB (0%)
Title : Full
Language : English
Default : No
Forced : No

Text #3
ID : 6
Format : UTF-8
Codec ID : S_TEXT/UTF8
Codec ID/Info : UTF-8 Plain Text
Duration : 1 h 31 min
Bit rate : 53 b/s
Count of elements : 1235
Stream size : 36.1 KiB (0%)
Title : SDH
Language : English
Default : No
Forced : No

Menu
00:00:00.000 : :Chapter 01
00:06:21.089 : :Chapter 02
00:15:03.820 : :Chapter 03
00:24:15.120 : :Chapter 04
00:33:01.688 : :Chapter 05
00:42:19.162 : :Chapter 06
00:51:43.517 : :Chapter 07
00:59:06.710 : :Chapter 08
01:07:56.072 : :Chapter 09
01:16:41.347 : :Chapter 10
01:24:17.010 : :Chapter 11
01:29:32.576 : :Chapter 12




Скачать Малышка с характером через торрент https://d.radikal.ru/d34/2012/c5/974d317bb075.jpg Скачать, смотреть онлайн Малышка с характером бесплантно в хорошем качестве Описание: В центре событий оказывается Эли Горски, служившая ранее в морской пехоте, а ныне работающая швейцаром в респектабельном отеле ... 9.8 10 5
Торрент: Зарегистрирован [2020-12-24 03:56] · скачан: 103 раз
Статус: √ проверено
Размер: 46.74 GB
Как cкачать? Как скачать Малышка с характером через торрент | UTorrent

% Раздел Тема Автор DL S | L
Фильмы 2019-2020 [DVDrip, WEB-DLRip, HDrip] (DUB, MVO) [ 1.42 GB ] Малышка с характером / The Doorman | Лицензия | BDRip Twi7ter Скачать
3 | 0
Фильмы 2019-2020 [DVDrip, WEB-DLRip, HDrip] (DUB, MVO) [ 1.45 GB ] Малышка с характером / The Doorman | iTunes | HDRip-AVC Lithuania Скачать
1 | 0
Фильмы 2019-2020 [DVDrip, WEB-DLRip, HDrip] (DUB, MVO) [ 745 MB ] Малышка с характером / The Doorman | iTunes | HDRip, (GER Tansfer bober100 Скачать
1 | 0
Фильмы (Blu-ray, BD-Remux, HDDVD) [ 27.55 GB ] Малышка с характером / The Doorman | iTunes | BD Remux 1080p, (GER Tansfer bober100 Скачать
1 | 0
Фильмы 2019-2020 [DVDrip, WEB-DLRip, HDrip] (DUB, MVO) [ 2.13 GB ] Малышка с характером / The Doorman | iTunes | BDRip-AVC, (GER Tansfer bober100 Скачать
1 | 0
Фильмы 2019-2020 [DVDrip, WEB-DLRip, HDrip] (DUB, MVO) [ 1.41 GB ] Малышка с характером / The Doorman | iTunes | BDRip, (GER Tansfer bober100 Скачать
1 | 0
Фильмы [HD 720p, 1080p] (Хороший звук DUB, MVO) [ 4.75 GB ] Малышка с характером / The Doorman | iTunes | 720p, (GER Tansfer bober100 Скачать
1 | 0

28-11-2019 20:33  


Отключить вcю реклaмy на сайте, в т.ч. и в плеере онлайн просмотра!

    Дорогой пользователь! Огромная просьба, поблагодарите релизера, оцените раздачу и оставьте свои комментарий, если Вы скачали Малышка с характером через торрент бесплатно!!
    Комментировать посты могут только пользователи прошедшие не сложную регистрацию
    Показать сообщения:    


    Малышка с характером через торрент
    Скачать бесплатно Малышка с характером
    Малышка с характером скачать торрент
    Малышка с характером смотреть онлайн
    Cкачать фильм Малышка с характером бесплатно
    Малышка с характером скачать торрент в хорошем качестве
    Малышка с характером смотреть онлайн бесплатно в хорошем качестве
    Вы не можете начинать темы
    Вы не можете отвечать на сообщения
    Вы не можете редактировать свои сообщения
    Вы не можете удалять свои сообщения
    Вы не можете голосовать в опросах
    Вы не можете прикреплять файлы к сообщениям
    Вы можете скачивать файлы
    Малышка с характером / The Doorman [2020, Боевик, триллер, UHD BDRemux 2160p, ] [GER Tansfer] Дубляж [iTunes] смотреть онлайн, скачать торрент picoco.icu