1 сезон

1 сезон

iTunes

1

КиноПоиск HD

Кинопоиск HD

iTunes

13

1 сезон

RePack

30

Новинка

ВАЖНО

ИГРА 18+

pack

RePack

MK11
pack

Легкие деньги

RePack

jed

RePack

fifa19

RePack

RDR2

RePack

NEED FOR SPEED™ PAYBACK

4 сезон

9 сезон

Бесстыжие 9 сезон

Все сериалы

все сериалы на PB.wtf

RePack

FAR CRY 5
  
Magnet ссылка

Скайлайн 3 / Skylines (Лайам О`Доннелл) [2020, Фантастика, боевик, HDRip-AVC] DUB+AVO [iTunes, Андрей Дольский] от MediaBit piratbit.org

Скайлайн 3 через торрент piratbit.org

Раздают: 2 [ 0 KB/s ]
Размер: 2.38 GB | Добавлен: 9 д. назад | Торрент скачан:26 раз
Скачать  

30-12-2020 16:56 Скайлайн 3 Скачать торрент  


Скайлайн 3 / Skylines
Информация о фильме:
Название: Скайлайн 3
Оригинальное название: Skylines
Год выхода: 2020
Жанр: Фантастика, боевик
Режиссер: Лайам О`Доннелл

В ролях: Линдси Морган, Джонатан Ховард, Дэниэл Бернхард, Рона Митра, Наоми Танкел, Чарли Юн, Джереми Фицджералд, Иева Андреевайте, Джеймс Космо, Александр Сиддиг, Яян Рухьян, Саманта Жан, Жиэдре Бонд, Пхун Джян

Описание: Через 15 лет после вторжения неизвестный вирус угрожает хрупкому сосуществованию дружественных инопланетных гибридов и людей. Родившаяся на космическом корабле мутант Роуз Корли сама испытывает трудности с управлением огневой рукой, когда на неё выходят члены сопротивления. Они предлагают девушке в составе хорошо подготовленного отряда, куда входит и её брат-инопланетянин Трент, отправиться на вражескую планету и захватить сердечник от разрушенного корабля, который поможет спасти человечество.



Страна: Франция
Студия: Mirabelle Pictures Productions, Artbox, Fasten Films
Продолжительность: 01:53:20
Перевод: Дублированный - iTunes , Авторский - Андрей Дольский



Информация о файле:
Кодек: AVC
Формат: MKV
Качество: HDRip-AVC
Видео: MPEG-4 AVC, 1024x428, 23.976 fps, 2234 kb/s
Аудио RU: AC3, 6 ch, 48 kHz, 384 kbps
Аудио RU: AC3, 6 ch, 48 kHz, 384 kbps
Субтитры: Русские (Forced, SDH), английские
Навигация по главам: Да

x264 info: frame I:1263 Avg QP:11.85 size: 69227
x264 info: frame P:42475 Avg QP:15.59 size: 23278
x264 info: frame B:119289 Avg QP:18.48 size: 6875
x264 info: consecutive B-frames: 4.6% 5.5% 14.0% 20.5% 21.7% 26.4% 5.1% 0.7% 0.7% 0.3% 0.6%

General
Unique ID : 318150743949606030002154769875554683745 (0xEF599ABDE6B49449259791E009E64B61)
Complete name : D:\uTorrent\Рипы_от_wolf1245_MediaBit\Skylines3.2020.DUB.AVO.HDRip-AVC.[wolf1245.MediaBit].mkv
Format : Matroska
Format version : Version 4
File size : 2.38 GiB
Duration : 1 h 53 min
Overall bit rate : 2 995 kb/s
Movie name : Skylines3.2020.DUB.AVO.HDRip-AVC.[wolf1245.MediaBit]
Encoded date : UTC 2021-04-13 15:02:52
Writing application : mkvmerge v56.1.0 ('My Friend') 64-bit
Writing library : libebml v1.4.2 + libmatroska v1.6.4

Video
ID : 1
Format : AVC
Format/Info : Advanced Video Codec
Format profile : High@L4.1
Format settings : CABAC / 12 Ref Frames
Format settings, CABAC : Yes
Format settings, Reference frames : 12 frames
Codec ID : V_MPEG4/ISO/AVC
Duration : 1 h 53 min
Bit rate : 2 234 kb/s
Width : 1 024 pixels
Height : 428 pixels
Display aspect ratio : 2.40:1
Frame rate mode : Constant
Frame rate : 23.976 (24000/1001) FPS
Color space : YUV
Chroma subsampling : 4:2:0
Bit depth : 8 bits
Scan type : Progressive
Bits/(Pixel*Frame) : 0.213
Stream size : 1.77 GiB (74%)
Title : [wolf1245.MediaBit]
Writing library : x264 core 157 r2958 57baac4
Encoding settings : cabac=1 / ref=12 / deblock=1:-3:-2 / analyse=0x3:0x133 / me=umh / subme=11 / psy=1 / psy_rd=1.00:0.05 / mixed_ref=1 / me_range=48 / chroma_me=1 / trellis=2 / 8x8dct=1 / cqm=0 / deadzone=21,11 / fast_pskip=1 / chroma_qp_offset=-3 / threads=10 / lookahead_threads=2 / sliced_threads=0 / nr=0 / decimate=1 / interlaced=0 / bluray_compat=0 / constrained_intra=0 / bframes=10 / b_pyramid=2 / b_adapt=2 / b_bias=0 / direct=3 / weightb=1 / open_gop=0 / weightp=2 / keyint=240 / keyint_min=24 / scenecut=40 / intra_refresh=0 / rc_lookahead=60 / rc=2pass / mbtree=1 / bitrate=2234 / ratetol=1.0 / qcomp=0.60 / qpmin=0 / qpmax=69 / qpstep=4 / cplxblur=20.0 / qblur=0.5 / vbv_maxrate=50000 / vbv_bufsize=62500 / nal_hrd=none / filler=0 / ip_ratio=1.40 / aq=1:0.80
Language : English
Default : Yes
Forced : No
Color range : Limited
Color primaries : BT.709
Transfer characteristics : BT.709
Matrix coefficients : BT.709

Audio #1
ID : 2
Format : AC-3
Format/Info : Audio Coding 3
Commercial name : Dolby Digital
Codec ID : A_AC3
Duration : 1 h 53 min
Bit rate mode : Constant
Bit rate : 384 kb/s
Channel(s) : 6 channels
Channel layout : L R C LFE Ls Rs
Sampling rate : 48.0 kHz
Frame rate : 31.250 FPS (1536 SPF)
Bit depth : 32 bits
Compression mode : Lossy
Stream size : 312 MiB (13%)
Title : DUB | iTunes
Language : Russian
Service kind : Complete Main
Default : Yes
Forced : No

Audio #2
ID : 3
Format : AC-3
Format/Info : Audio Coding 3
Commercial name : Dolby Digital
Codec ID : A_AC3
Duration : 1 h 53 min
Bit rate mode : Constant
Bit rate : 384 kb/s
Channel(s) : 6 channels
Channel layout : L R C LFE Ls Rs
Sampling rate : 48.0 kHz
Frame rate : 31.250 FPS (1536 SPF)
Bit depth : 32 bits
Compression mode : Lossy
Stream size : 311 MiB (13%)
Title : AVO | [Dolskiy]
Language : Russian
Service kind : Complete Main
Default : No
Forced : No

Text #1
ID : 4
Format : UTF-8
Codec ID : S_TEXT/UTF8
Codec ID/Info : UTF-8 Plain Text
Duration : 1 h 42 min
Bit rate : 9 b/s
Count of elements : 171
Stream size : 6.78 KiB (0%)
Title : Forced
Language : Russian
Default : No
Forced : No

Text #2
ID : 5
Format : UTF-8
Codec ID : S_TEXT/UTF8
Codec ID/Info : UTF-8 Plain Text
Duration : 1 h 44 min
Bit rate : 82 b/s
Count of elements : 1271
Stream size : 62.9 KiB (0%)
Title : SDH
Language : Russian
Default : No
Forced : No

Text #3
ID : 6
Format : UTF-8
Codec ID : S_TEXT/UTF8
Codec ID/Info : UTF-8 Plain Text
Duration : 1 h 44 min
Bit rate : 38 b/s
Count of elements : 1021
Stream size : 29.4 KiB (0%)
Title : SDH
Language : English
Default : No
Forced : No

Menu
00:00:00.000 : :00:00:00.000
00:17:53.614 : :00:17:53.614
00:32:07.843 : :00:32:07.843
00:51:53.485 : :00:51:53.485
01:13:12.179 : :01:13:12.179
01:34:54.272 : :01:34:54.272
Релиз от: &

Автор релиза:
piratbit.org



Скачать Скайлайн 3 через торрент https://i114.fastpic.ru/big/2020/1230/aa/ac275f87a1fd1f0376e0552ef3cd75aa.png Скачать фильм Скайлайн 3 через торрент бесплантно в хорошем качестве Описание: Через 15 лет после вторжения неизвестный вирус угрожает хрупкому сосуществованию дружественных инопланетных гибридов и людей. ... 8.3 10 8
Торрент: Зарегистрирован [2021-04-13 15:17] · скачан: 26 раз
Статус: √ проверено
Размер: 2.38 GB
Как cкачать? Как скачать Скайлайн 3 через торрент | UTorrent



Последний раз редактировалось: Lithuania (2021-04-13 15:17), всего редактировалось 1 раз

28-11-2019 20:33  

Отключить всю рекламу на сайте

01-01-2021 18:42 Скайлайн 3 Скачать торрент  

Шлак шлаком, не тратьте время(((piratbit.org



02-01-2021 10:03 Скайлайн 3 Скачать торрент  

полная шляпа, держитесь подальше от этой хуеты.piratbit.org



03-01-2021 09:22 Скайлайн 3 Скачать торрент  

первая и вторая вполне норм. этой на 10 мин хватило..piratbit.org



    Дорогой пользователь! Огромная просьба, поблагодарите релизера, оцените раздачу и оставьте свои комментарий, если Вы скачали Скайлайн 3 через торрент бесплатно! Внесите свою лепту в развитие PiratBit!
    Комментировать посты могут только пользователи прошедшие не сложную регистрацию
    Показать сообщения:    

    Скайлайн 3 через торрент
    Скачать бесплатно Скайлайн 3
    Скайлайн 3 скачать торрент
    Скайлайн 3 смотреть онлайн
    Cкачать фильм Скайлайн 3 бесплатно
    Скайлайн 3 скачать торрент в хорошем качестве
    Скайлайн 3 смотреть онлайн бесплатно в хорошем качестве


    Вы не можете начинать темы
    Вы не можете отвечать на сообщения
    Вы не можете редактировать свои сообщения
    Вы не можете удалять свои сообщения
    Вы не можете голосовать в опросах
    Вы не можете прикреплять файлы к сообщениям
    Вы можете скачивать файлы