2 сезон

iTunes

MVO

1

2 сезон

iTunes

iTunes

1 сезон

RePack

30

Новинка

ВАЖНО

ИГРА 18+

pack

RePack

MK11
pack

Легкие деньги

RePack

jed

RePack

fifa19

RePack

RDR2

RePack

NEED FOR SPEED™ PAYBACK

4 сезон

9 сезон

Бесстыжие 9 сезон

Все сериалы

все сериалы на PB.wtf

RePack

FAR CRY 5

Anonymous, добрый день, мы не успеваем собрать деньги на оплату серверов за декабрь и январь, помогите нам пожалуйста в это трудное время. В качестве благодарности мы отключим Вам всю рекламу на сайте (укажите свой ник в строку Ваше имя)!

×
  
Magnet ссылка

Реальные пацаны против зомби (Жанна Кадникова) [2020, комедия, фантастика, WEBRip 1080p] piratbit.org

Реальные пацаны против зомби через торрент piratbit.org

Раздают: 149 [ 18 MB/s ] Качают: 17 [ 2 MB/s ]
Размер: 2.84 GB | Добавлен: 23 ч. назад | Торрент скачан:321 раз
Скачать  

30-12-2020 17:02 Реальные пацаны против зомби Скачать торрент  

Реальные пацаны против зомби
Год выпуска: 2020
Страна: Россия
Студия: Good Story Media, ТНТ
Жанр: комедия, фантастика
Продолжительность: 01:27:11
Перевод: Не требуется
Субтитры: отсутствуют

Режиссер: Жанна Кадникова



В ролях: Николай Наумов, Зоя Бербер, Валентина Мазунина, Станислав Тляшев, Марина Федункив, Игорь Ознобихин, Владимир Селиванов, Армен Бежанян, Мария Скорницкая, Алексей Базанов

Описание: В Пермь завезли древний коми-пермяцкий вирус, который постепенно превращает жителей в зомби. Спустя год город оцеплен военными, учёные пытаются найти антидот. Самолёты скидывают продовольствие. Но герои, как и остальные жители Перми, приспособились к новой реальности. Они живут обычной жизнью: ходят в кафе, занимаются бизнесом, строят планы на будущее и пытаются своими силами очистить город от зомби. Всё налаживается, пока в один из обычных постапокалиптических дней не кусают Леру.

Качество: WEBRip 1080p
Формат: MKV

Видео: MPEG-4 AVC, 4500 Кбит/с, 1920x800
Аудио: AC3, 2 ch, 192 Кбит/с
скриншот  скриншот  скриншот  скриншот  

Complete name : Realnyie.patsanyi.protiv.zombi.2020.WEB-DL.1080p.ELEKTRI4KA.UNIONGANG.mkv
Format : Matroska
Format version : Version 4 / Version 2
File size : 2.84 GiB
Duration : 1 h 27 min
Overall bit rate mode : Variable
Overall bit rate : 4 670 kb/s
Movie name : .ELEKTRI4KA.UNIONGANG.
Encoded date : UTC 2021-01-16 12:38:09
Writing application : mkvmerge v8.3.0 ('Over the Horizon') 64bit
Writing library : libebml v1.3.1 + libmatroska v1.4.2

Video
ID : 1
Format : AVC
Format/Info : Advanced Video Codec
Format profile : High@L4
Format settings, CABAC : Yes
Format settings, Reference frames : 1 frame
Format settings, GOP : M=1, N=50
Codec ID : V_MPEG4/ISO/AVC
Duration : 1 h 27 min
Bit rate mode : Variable
Bit rate : 4 500 kb/s
Width : 1 920 pixels
Height : 800 pixels
Display aspect ratio : 2.40:1
Frame rate mode : Constant
Frame rate : 25.000 FPS
Color space : YUV
Chroma subsampling : 4:2:0
Bit depth : 8 bits
Scan type : Progressive
Bits/(Pixel*Frame) : 0.117
Stream size : 2.73 GiB (96%)
Default : Yes
Forced : No

Audio
ID : 2
Format : AC-3
Format/Info : Audio Coding 3
Mode extension : CM (complete main)
Format settings, Endianness : Big
Codec ID : A_AC3
Duration : 1 h 27 min
Bit rate mode : Constant
Bit rate : 192 kb/s
Channel(s) : 2 channels
Channel positions : Front: L R
Sampling rate : 44.1 kHz
Frame rate : 28.711 FPS (1536 spf)
Bit depth : 16 bits
Compression mode : Lossy
Stream size : 120 MiB (4%)
Language : Russian
Default : Yes
Forced : No

piratbit.org



Скачать Реальные пацаны против зомби через торрент https://d.radikal.ru/d14/2101/5d/90c549bacef6.png Скачать фильм Реальные пацаны против зомби через торрент бесплантно в хорошем качестве Описание: В Пермь завезли древний коми-пермяцкий вирус, который постепенно превращает жителей в зомби. Спустя год город оцеплен военными, ... 8.4 10 18
Торрент: Зарегистрирован [2021-01-16 13:52] · скачан: 321 раз
Статус: T временная
Размер: 2.84 GB
Как cкачать? Как скачать Реальные пацаны против зомби через торрент | UTorrent

% Раздел Тема Автор DL S | L
* Наши новые фильмы 2020 - 2021 [ 749 MB ] Реальные пацаны против зомби [2020 WEBRip-AVC] [RUS] от MediaBit Lithuania Скачать
40 | 5
T Наши новые фильмы 2020 - 2021 [ 1.37 GB ] Реальные пацаны против зомби [2020 WEBRip] bober100 Скачать
69 | 4


Последний раз редактировалось: bober100 (2021-01-16 13:56), всего редактировалось 2 раз(а)

28-11-2019 20:33  

Отключить всю рекламу на сайте

31-12-2020 06:21 Реальные пацаны против зомби Скачать торрент  

БурыйТино писал(а):

у меня один вопрос к создателям сего шедевра ЗАЧЕМ???????????

ну наверно деньги кончились у реальных пацановpiratbit.org



03-01-2021 10:50 Реальные пацаны против зомби Скачать торрент  

а я весь посмотрел. и знаете - за что такое?piratbit.org



10-01-2021 12:24 Реальные пацаны против зомби Скачать торрент  

Что то даже такое страшно смотреть.. думаю обойду стороной.piratbit.org



16-01-2021 14:08 Реальные пацаны против зомби Скачать торрент  

Надеюсь, это последний высос из пальца.piratbit.org



17-01-2021 05:37 Реальные пацаны против зомби Скачать торрент  

Блин, такого говна давно никто не снимал, с первой секунды до последней, дерьмище, не смотрите.piratbit.org



    Дорогой пользователь! Огромная просьба, поблагодарите релизера, оцените раздачу и оставьте свои комментарий, если Вы скачали Реальные пацаны против зомби через торрент бесплатно! Внесите свою лепту в развитие PiratBit!
    Комментировать посты могут только пользователи прошедшие не сложную регистрацию
    Показать сообщения:    

    Реальные пацаны против зомби через торрент
    Скачать бесплатно Реальные пацаны против зомби
    Реальные пацаны против зомби скачать торрент
    Реальные пацаны против зомби смотреть онлайн
    Cкачать фильм Реальные пацаны против зомби бесплатно
    Реальные пацаны против зомби скачать торрент в хорошем качестве
    Реальные пацаны против зомби смотреть онлайн бесплатно в хорошем качестве


    Вы не можете начинать темы
    Вы не можете отвечать на сообщения
    Вы не можете редактировать свои сообщения
    Вы не можете удалять свои сообщения
    Вы не можете голосовать в опросах
    Вы не можете прикреплять файлы к сообщениям
    Вы можете скачивать файлы