1 сезон

3 сезон

iTunes

1

iTunes

MVO

iTunes

13

1 сезон

RePack

30

Deluxe

pack

Лицензия

ВАЖНО

ИГРА 18+

pack

RePack

MK11

RePack

jed

RePack

fifa19

RePack

RDR2

RePack

NEED FOR SPEED™ PAYBACK

4 сезон

9 сезон

Бесстыжие 9 сезон

Все сериалы

все сериалы на PB.wtf

RePack

FAR CRY 5

Anonymous, доброе утро, мы катастрофически не успеваем собрать деньги на оплату серверов, помогите нам пожалуйста 5,10,15р., для нас важна любая помощь . В качестве благодарности мы отключим Вам всю рекламу на сайте (укажите свой ник в строку Ваше имя)!

×
  
Magnet ссылка

Авангард: Арктические волки / Ji xian feng / Vanguard (Стэнли Тонг) [2020 г., Боевик, криминал, BDRip 720p / 60 FPS, Дубляж iTunes] от R.G. HD-Films piratbit.org

Авангард: Арктические волки через торрент piratbit.org

Раздают: 3 [ 0 KB/s ]
Размер: 3.54 GB | Добавлен: 6 мес. назад | Торрент скачан:278 раз
Скачать  

30-12-2020 18:19 Авангард: Арктические волки Скачать торрент  

Авангард: Арктические волки / Ji xian feng / Vanguard
Год выпуска: 2020
Страна: Китай
Жанр: Боевик, криминал
Продолжительность: 01:47:18
Перевод: Дубляж iTunes
Субтитры: Русские (Forced, full [Enigma]), английские

Режиссер: Стэнли Тонг

Премьера в мире: 30 сентября 2020

rating

В ролях: Джеки Чан, Ян Ян, Лунь Ай, Мия Муци, Чжу Чжэнтин, Ван Чжэньвэй, Саид Бадрия, Джексон Лоу, Эйад Хурани, Десмонд Элдридж

Описание: Они берутся за задания, которые другим не под силу. Когда международный синдикат наемников похищает известного бизнесмена, единственным шансом на его спасение становится лихая команда «Авангард», не имеющая равных в мастерстве и дерзости.

Качество: BDRip 720p / 60 FPS
Формат: MKV
Видео кодек: H.264
Аудио кодек: AC3
Видео: x264, 1280 x 536 ( 2,40:1 ), 3886 kbps, 60,000 fps, ( 0.094 bpp)
Аудио#1: 48 kHz, AC3, 5.1, 384 Kbps | iTunes | RUS
Аудио#2: 48 kHz, AC3, 5.1, 448 Kbps | Оригинал | Chinese
Релиз от: Автор рипа: slaventi-69
x264 info: frame I:2593 Avg QP:15.20 size:104099
x264 info: frame P:83632 Avg QP:17.72 size: 26396
x264 info: frame B:300080 Avg QP:19.59 size: 2167
x264 info: consecutive B-frames: 1.3% 2.8% 4.4% 26.7% 20.4% 44.4%


Общее
Уникальный идентификатор : 516353190116336160310043115878149011 (0x63722D84FE24120CDF5B9A6F78EB93)
Полное имя : E:\Vanguard.(2020).BDRip.720p.(60 Fps).mkv
Формат : Matroska
Версия формата : Version 4
Размер файла : 3,54 Гбайт
Продолжительность : 1 ч. 47 м.
Общий поток : 4723 Кбит/сек
Название фильма : Авангард: Арктические волки / Ji xian feng / Vanguard (2020) BDRip 720p (60 Fps)
Дата кодирования : UTC 2020-12-30 17:47:56
Программа кодирования : mkvmerge v35.0.0 ('All The Love In The World') 64-bit
Библиотека кодирования : libebml v1.3.9 + libmatroska v1.5.2

Видео
Идентификатор : 1
Формат : AVC
Формат/Информация : Advanced Video Codec
Профиль формата : High@L4.1
Настройки формата : CABAC / 8 Ref Frames
Параметр CABAC формата : Да
Параметр RefFrames формата : 8 кадров
Идентификатор кодека : V_MPEG4/ISO/AVC
Продолжительность : 1 ч. 47 м.
Битрейт : 3886 Кбит/сек
Номинальный битрейт : 4200 Кбит/сек
Ширина : 1280 пикселей
Высота : 536 пикселей
Соотношение сторон : 2,40:1
Режим частоты кадров : Постоянный
Частота кадров : 60,000 кадров/сек
Цветовое пространство : YUV
Субдискретизация насыщенности : 4:2:0
Битовая глубина : 8 бит
Тип развёртки : Прогрессивная
Бит/(Пиксели*Кадры) : 0.094
Размер потока : 2,91 Гбайт (82%)
Заголовок : slaventi-69 ( R.G. HD-Films | 60 fps )
Библиотека кодирования : x264 core 157 r2958 57baac4
Настройки программы : cabac=1 / ref=8 / deblock=1:-2:-2 / analyse=0x3:0x113 / me=umh / subme=9 / psy=1 / psy_rd=1.00:0.00 / mixed_ref=1 / me_range=32 / chroma_me=1 / trellis=2 / 8x8dct=1 / cqm=0 / deadzone=21,11 / fast_pskip=1 / chroma_qp_offset=2 / threads=5 / lookahead_threads=1 / sliced_threads=0 / nr=0 / decimate=1 / interlaced=0 / bluray_compat=0 / constrained_intra=0 / bframes=5 / b_pyramid=2 / b_adapt=2 / b_bias=4 / direct=1 / weightb=1 / open_gop=0 / weightp=2 / keyint=600 / keyint_min=60 / scenecut=40 / intra_refresh=0 / rc_lookahead=40 / rc=cbr / mbtree=1 / bitrate=4200 / ratetol=1.0 / qcomp=0.60 / qpmin=0 / qpmax=69 / qpstep=4 / vbv_maxrate=4200 / vbv_bufsize=3000 / nal_hrd=none / filler=0 / ip_ratio=1.40 / aq=1:1.00
Язык : Chinese
Default : Да
Forced : Нет
Цветовой диапазон : Limited
Основные цвета : BT.709
Характеристики трансфера : BT.709
Коэффициенты матрицы : BT.709

Аудио #1
Идентификатор : 2
Формат : AC-3
Формат/Информация : Audio Coding 3
Коммерческое название : Dolby Digital
Идентификатор кодека : A_AC3
Продолжительность : 1 ч. 47 м.
Вид битрейта : Постоянный
Битрейт : 384 Кбит/сек
Каналы : 6 каналов
Channel layout : L R C LFE Ls Rs
Частота : 48,0 КГц
Частота кадров : 31,250 кадров/сек (1536 SPF)
Битовая глубина : 16 бит
Метод сжатия : С потерями
Размер потока : 295 Мбайт (8%)
Заголовок : iTunes
Язык : Russian
ServiceKind/String : Complete Main
Default : Да
Forced : Нет

Аудио #2
Идентификатор : 3
Формат : AC-3
Формат/Информация : Audio Coding 3
Коммерческое название : Dolby Digital
Идентификатор кодека : A_AC3
Продолжительность : 1 ч. 47 м.
Вид битрейта : Постоянный
Битрейт : 448 Кбит/сек
Каналы : 6 каналов
Channel layout : L R C LFE Ls Rs
Частота : 48,0 КГц
Частота кадров : 31,250 кадров/сек (1536 SPF)
Битовая глубина : 16 бит
Метод сжатия : С потерями
Размер потока : 344 Мбайт (9%)
Заголовок : Original
Язык : Chinese
ServiceKind/String : Complete Main
Default : Нет
Forced : Нет

Текст #1
Идентификатор : 4
Формат : UTF-8
Идентификатор кодека : S_TEXT/UTF8
Идентификатор кодека/Информация : UTF-8 Plain Text
Продолжительность : 1 ч. 32 м.
Битрейт : 0 бит/сек
ElementCount : 9
Размер потока : 439 байт (0%)
Заголовок : Forced
Язык : Russian
Default : Да
Forced : Нет

Текст #2
Идентификатор : 5
Формат : UTF-8
Идентификатор кодека : S_TEXT/UTF8
Идентификатор кодека/Информация : UTF-8 Plain Text
Продолжительность : 1 ч. 38 м.
Битрейт : 64 бит/сек
ElementCount : 1039
Размер потока : 46,7 Кбайт (0%)
Заголовок : Full [Enigma]
Язык : Russian
Default : Нет
Forced : Нет

Текст #3
Идентификатор : 6
Формат : UTF-8
Идентификатор кодека : S_TEXT/UTF8
Идентификатор кодека/Информация : UTF-8 Plain Text
Продолжительность : 1 ч. 38 м.
Битрейт : 36 бит/сек
ElementCount : 1316
Размер потока : 26,4 Кбайт (0%)
Заголовок : Full
Язык : English
Default : Нет
Forced : Нет

Меню
00:00:00.000 : :Глава 01
00:09:28.917 : :Глава 02
00:18:20.083 : :Глава 03
00:26:45.958 : :Глава 04
00:36:07.208 : :Глава 05
00:45:35.000 : :Глава 06
00:53:20.958 : :Глава 07
01:02:13.458 : :Глава 08
01:10:39.500 : :Глава 09
01:19:55.958 : :Глава 10
01:29:10.333 : :Глава 11
01:33:06.583 : :Глава 12

Просьба к переливающим на другие сайты, в оформлении указывайте пожалуйста авторство группы R.G. HD-Films piratbit.org



Скачать Авангард: Арктические волки через торрент https://b.radikal.ru/b34/2012/e1/b431c5ebe1b1.jpg Скачать фильм Авангард: Арктические волки через торрент бесплантно в хорошем качестве Описание: Они берутся за задания, которые другим не под силу. Когда международный синдикат наемников похищает известного бизнесмена, ... 8.8 10 9
Торрент: Зарегистрирован [2020-12-30 18:19] · скачан: 278 раз
Статус: √ проверено
Размер: 3.54 GB
Как cкачать? Как скачать Авангард: Арктические волки через торрент | UTorrent

28-11-2019 20:33  

Отключить всю рекламу на сайте

10-03-2021 15:10 Авангард: Арктические волки Скачать торрент  

у этого фильма та же проблема, что и у 6 underground

фильм 60 кадров в секунду, но без интерполяции, без новых кадровpiratbit.org



13-03-2021 18:16 Авангард: Арктические волки Скачать торрент  

фильм шляпа. Фуууpiratbit.org



20-07-2021 09:47 Авангард: Арктические волки Скачать торрент  

kuksanov писал(а):

фильм шляпа. Фууу

А что вы ожидали от полудурка Джеки Чана.piratbit.org



    Дорогой пользователь! Огромная просьба, поблагодарите релизера, оцените раздачу и оставьте свои комментарий, если Вы скачали Авангард: Арктические волки через торрент бесплатно! Внесите свою лепту в развитие PiratBit!
    Комментировать посты могут только пользователи прошедшие не сложную регистрацию
    Показать сообщения:    

    Авангард: Арктические волки через торрент
    Скачать бесплатно Авангард: Арктические волки
    Авангард: Арктические волки скачать торрент
    Авангард: Арктические волки смотреть онлайн
    Cкачать фильм Авангард: Арктические волки бесплатно
    Авангард: Арктические волки скачать торрент в хорошем качестве
    Авангард: Арктические волки смотреть онлайн бесплатно в хорошем качестве


    Вы не можете начинать темы
    Вы не можете отвечать на сообщения
    Вы не можете редактировать свои сообщения
    Вы не можете удалять свои сообщения
    Вы не можете голосовать в опросах
    Вы не можете прикреплять файлы к сообщениям
    Вы можете скачивать файлы