Anonymous, доброй ночи, присоединяйтесь к нам в Telegram!, здесь всегда актуальный адрес сайта, оперативная поддержка и многое другое!

>

5.6

iTunes

7.4

iTunes

5.7

MVO

1

7.7

1 сезон

6.8

iTunes

7.3

1 сезон

13

6.7

1 сезон

8.3

RePack

30

ULTIMATE

pack

9.9

Лицензия

ВАЖНО

ИГРА 18+

pack

7.3

RePack

MK11

7.7

RePack

jed

7.8

RePack

fifa19

8.5

RePack

RDR2

RePack

NEED FOR SPEED™ PAYBACK

4 сезон

9 сезон

Бесстыжие 9 сезон

Все сериалы

все сериалы на PB.wtf

RePack

FAR CRY 5

Anonymous, доброй ночи, мы катастрофически не успеваем собрать деньги на оплату серверов, помогите нам пожалуйста 5,10,15р., для нас важна любая помощь . В качестве благодарности мы отключим Вам всю рекламу на сайте (укажите свой ник в строку Ваше имя)!

×
  
Magnet ссылка

СашаТаня / Сезон: 10 / Серии: 1-22 из 22 (Михаил Старчак, Андрей Богатырев, Александр Потапов) [2021, Комедия, WEBRip 720p] piratbit.org

СашаТаня через торрент piratbit.org

Размер: 11.2 GB | Добавлен: 3 д. назад | Торрент скачан:5 раз
Смотреть онлайн СашаТаня | Скачать    Ребята, помогите собрать деньги на оплату серверов!!!

02-01-2021 17:52 СашаТаня Скачать торрент  

СашаТаня 10
Год выпуска: 2021
Страна: Россия
Производство: Comedy Club Production
Жанр: Комедия
Продолжительность: ~ 00:24:00
Перевод: Не требуется
Субтитры: отсутствуют

Режиссер: Михаил Старчак, Андрей Богатырев, Александр Потапов (IV)



В ролях: Андрей Гайдулян, Валентина Рубцова, Алексей Климушкин, Андрей Свиридов, Алексей Лемар, Лариса Баранова (II), Арарат Кещян, Павел Кассинский, Алина Ланина, Сергей Рудзевич, Татьяна Орлова, Олег Новиков (II), Андрей Лебедев, Ксения Хаирова, Виталий Гогунский, Сергей Мурзин, Михаил Полосухин, Веста Буркот, Александра Булычёва, Ёлка, Григорий Адаменко, Александр Корженков, Евгения Брагина, Александр Берлин (II), Олеся Галькевич, Михаил Солодовник, Ираида Краснопольская, Дмитрий Лямочкин, Марина Барсукова, Сергей Балашов (III), Николай Стародубцев, Владимир Витан, Максим Голополосов, Надежда Азоркина, Виктория Герасимова, Яна Чигир, Владимир Епифанцев

Описание: Ситком «САШАТАНЯ» разменял уже третью сотню эпизодов, но по прежнему герои поднимают актуальные семейные проблемы! В новых сериях Сергеевы вместе с сыном Алешкой пойдут первый раз в первый класс. Постигать школьную программу, как и положено, предстоит его родителям, поэтому Саша и Таня снова засядут за тетради и учебники. Сильвестр Андреевич будет изо всех сил стараться вернуться обратно в ТОП-100 богатеев страны. Сильно пошатнувшееся здоровье, как ни странно, сыграет ему на руку. На деньги, полученные по страховке, он организует алкогольный завод. Правда, есть в его бизнес-плане несколько серьезных просчетов, которые могут обернуться реальным крахом. Лучшие друзья Сергеевых Лиля и Миша раскроют свою очень интимную тайну, а вечная студентка Катя снова будет искать приключения на свою зачетку и проживет несколько дней в шкафу у Сашиного босса.

Качество: WEBRip 720p
Формат: MKV

Видео: MPEG-4 AVC, ~ 3000 Кбит/с, 1280x720, 25 кадр/с
Аудио: 48.0 kHz, AC3 Dolby Digital, 2/0 (L,R) ch, ~ 192 kbps
скриншот  скриншот  скриншот  скриншот  скриншот  

General
Unique ID : 209653536007400641727096350106203873243 (0x9DB9CD63294DE82A95112E89F1F65FDB)
Complete name : C:\00\СашаТаня .s07.2020.WEB-DL 720p.Files-x\01. СашаТаня .s07.2020.WEB-DL 720p.Files-x.mkv
Format : Matroska
File size : 504 MiB
Duration : 22mn 7s
Overall bit rate : 3 184 Kbps
Encoded date : UTC 2021-01-02 17:36:08
Writing application : mkvmerge v7.8.0 ('River Man') 32bit built on Apr 3 2015 12:11:22
Writing library : libebml v1.3.1 + libmatroska v1.4.2

Video
ID : 1
Format : AVC
Format/Info : Advanced Video Codec
Format profile : High@L3.1
Format settings, CABAC : Yes
Format settings, ReFrames : 1 frame
Codec ID : V_MPEG4/ISO/AVC
Duration : 22mn 7s
Bit rate mode : Variable
Bit rate : 2 928 Kbps
Maximum bit rate : 3 000 Kbps
Width : 1 280 pixels
Height : 720 pixels
Display aspect ratio : 16:9
Frame rate : 25.000 fps
Color space : YUV
Chroma subsampling : 4:2:0
Bit depth : 8 bits
Scan type : Progressive
Bits/(Pixel*Frame) : 0.127
Stream size : 464 MiB (92%)

Audio
ID : 2
Format : AC-3
Format/Info : Audio Coding 3
Mode extension : CM (complete main)
Codec ID : A_AC3
Duration : 22mn 7s
Bit rate mode : Constant
Bit rate : 192 Kbps
Channel(s) : 2 channels
Channel positions : Front: L R
Sampling rate : 44.1 KHz
Bit depth : 16 bits
Compression mode : Lossy
Delay relative to video : 9ms
Stream size : 30.4 MiB (6%)

Когда раздача ведётся путём добавления новых серий, при каждом добавлении создётся новый торрент. Чтобы начать докачку новой серии, пользователям необходимо сделать следующее:
(1) остановить скачивание,
(2) удалить старый торрент у себя из клиента (старые серии удалять не надо),
(3) скачать новый торрент и запустить его у себя в клиенте вместо старого, при этом указать клиенту путь в старую папку, куда и должно происходить скачивание новых серий.
Ваш клиент при этом должен произвести хеширование (проверку) старой папки (если не производит сам - помогите ему сделать это), и будет докачивать только те серии, которых у вас ещё нет. Старые серии при этом не удаляются, а продолжают раздаваться!
Eсли вы уже удалили старые серии, то предотвратить повторную закачку старых серий можно, отжав галочку в соответсвующих местах при запуске нового торрента. По возможности, желательно не удалять старые серии как можно дольше, чтобы релизёр не столько продолжал раздавать старые серии, а смог сконцентрироваться на новых.

piratbit.org



Скачать СашаТаня через торрент https://i114.fastpic.ru/big/2021/0102/df/f89ba0cf4756b99fe98aeb35f26df3df.jpg Скачать, смотреть онлайн СашаТаня бесплантно в хорошем качестве Описание: Ситком «САШАТАНЯ» разменял уже третью сотню эпизодов, но по прежнему герои поднимают актуальные семейные проблемы! В новых сериях ... 7.2 10 13
Торрент: Зарегистрирован [2021-10-13 21:26] · скачан: 5 раз
Статус: √ проверено
Размер: 11.2 GB
Как cкачать? Как скачать СашаТаня через торрент | UTorrent

% Раздел Тема Автор DL S | L
TNT serials [ 16.46 GB ] СашаТаня / Сезон: 10 / Серии: 1-22 из 40 [2021 WEBRip 1080p] bober100 Скачать
1 | 0
TNT serials [ 22.33 GB ] СашаТаня / Сезон: 10 / Серии: 1-22 из 22 [2021 HDTV 1080i] bober100 Скачать
1 | 0
TNT serials [ 6.45 GB ] СашаТаня / Сезон: 10 / Серии: 1-22 из 22 [2021 WEBRip] bober100 Скачать
5 | 0
TNT serials [ 6.68 GB ] СашаТаня / Сезон: 10 / Серии: 1-22 из 22 [2021 SATRip] bober100 Скачать
1 | 0


Последний раз редактировалось: bober100 (2021-10-13 21:26), всего редактировалось 2 раз(а)

28-11-2019 20:33  

Отключить всю рекламу на сайте

12-10-2021 09:58 СашаТаня Скачать торрент  

Пипец! Их еще снимают?...ПростоСашиноТанино... piratbit.org



    Дорогой пользователь! Огромная просьба, поблагодарите релизера, оцените раздачу и оставьте свои комментарий, если Вы скачали СашаТаня через торрент бесплатно!
    Комментировать посты могут только пользователи прошедшие не сложную регистрацию
    Показать сообщения:    

    СашаТаня через торрент
    Скачать бесплатно СашаТаня
    СашаТаня скачать торрент
    СашаТаня смотреть онлайн
    Cкачать фильм СашаТаня бесплатно
    СашаТаня скачать торрент в хорошем качестве
    СашаТаня смотреть онлайн бесплатно в хорошем качестве


    Вы не можете начинать темы
    Вы не можете отвечать на сообщения
    Вы не можете редактировать свои сообщения
    Вы не можете удалять свои сообщения
    Вы не можете голосовать в опросах
    Вы не можете прикреплять файлы к сообщениям
    Вы можете скачивать файлы