1 сезон

1 сезон

iTunes

1

iTunes

Кинопоиск HD

iTunes

13

1 сезон

RePack

30

Deluxe

ВАЖНО

ИГРА 18+

pack

RePack

MK11
pack

Легкие деньги

RePack

jed

RePack

fifa19

RePack

RDR2

RePack

NEED FOR SPEED™ PAYBACK

4 сезон

9 сезон

Бесстыжие 9 сезон

Все сериалы

все сериалы на PB.wtf

RePack

FAR CRY 5
  
Magnet ссылка

Клуб «Кастет» / Knuckledust (Джеймс Кермак) [2020, боевик, триллер, HDRip-AVC] DUB [iTunes] от MediaBit piratbit.org

Клуб «Кастет» через торрент piratbit.org

Раздают: 13 [ 0 KB/s ]
Размер: 2.04 GB | Добавлен: 12 д. назад | Торрент скачан:108 раз
Скачать  

04-01-2021 19:20 Клуб «Кастет» Скачать торрент  


Клуб «Кастет» / Knuckledust
Информация о фильме:
Название: Клуб «Кастет»
Оригинальное название: Knuckledust
Год выхода: 2020
Жанр: боевик, триллер
Режиссер: Джеймс Кермак

В ролях: Оливье Рихтерс, Кейт Дики, Филип Дэвис, Эми Бэйли, Мо Данфорд, Гетин Энтони, Алекс Фернс, Джеми Уинстон, Гийом Делони, Себастьен Фукан

Описание: Когда особым агентам полиции поручают разобраться с подпольным клубом Кастет, они сталкиваются с семью кругами ада, наполненными трупами, бойцами, убийцами и наемниками.



Страна: Великобритания, Франция
Студия: Featuristic Films, Head Gear Films, Metrol Technology
Продолжительность: 01:45:29
Перевод: Дублированный - iTunes



Информация о файле:
Кодек: AVC
Формат: MKV
Качество: HDRip-AVC
Видео: MPEG-4 AVC, 1024x552, 23.976 fps, 1940 kb/s
Аудио RU: AC3, 6 ch, 48 kHz, 384 kbps
Аудио EN: AC3, 6 ch, 48 kHz, 448 kbps
Субтитры: Русские (Full), английские
Навигация по главам: Да

x264 info: frame I:1235 Avg QP:13.90 size: 85557
x264 info: frame P:31913 Avg QP:17.31 size: 22675
x264 info: frame B:118555 Avg QP:19.88 size: 5935
General
Unique ID : 327479778436068866894597451551831367100 (0xF65E4FA756A53A875C0BD7A969E21DBC)
Complete name : D:uTorrentРипы_от_wolf1245_MediaBitKnuckledust.2020.DUB.iTunes.HDRip-AVC.[wolf1245.MediaBit].mkv
Format : Matroska
Format version : Version 4
File size : 2.04 GiB
Duration : 1 h 45 min
Overall bit rate : 2 764 kb/s
Movie name : Knuckledust.2020.DUB.iTunes.HDRip-AVC.[wolf1245.MediaBit]
Encoded date : UTC 2021-05-01 10:38:04
Writing application : mkvmerge v56.1.0 ('My Friend') 64-bit
Writing library : libebml v1.4.2 + libmatroska v1.6.4
Video
ID : 1
Format : AVC
Format/Info : Advanced Video Codec
Format profile : High@L4.1
Format settings : CABAC / 12 Ref Frames
Format settings, CABAC : Yes
Format settings, Reference frames : 12 frames
Codec ID : V_MPEG4/ISO/AVC
Duration : 1 h 45 min
Bit rate : 1 940 kb/s
Width : 1 024 pixels
Height : 552 pixels
Display aspect ratio : 1.85:1
Frame rate mode : Constant
Frame rate : 23.976 (24000/1001) FPS
Color space : YUV
Chroma subsampling : 4:2:0
Bit depth : 8 bits
Scan type : Progressive
Bits/(Pixel*Frame) : 0.143
Stream size : 1.43 GiB (70%)
Title : .[wolf1245.MediaBit]
Writing library : x264 core 157 r2958 57baac4
Encoding settings : cabac=1 / ref=12 / deblock=1:-3:-3 / analyse=0x3:0x133 / me=umh / subme=11 / psy=1 / psy_rd=1.00:0.05 / mixed_ref=1 / me_range=48 / chroma_me=1 / trellis=2 / 8x8dct=1 / cqm=0 / deadzone=21,11 / fast_pskip=1 / chroma_qp_offset=-3 / threads=10 / lookahead_threads=2 / sliced_threads=0 / nr=0 / decimate=1 / interlaced=0 / bluray_compat=0 / constrained_intra=0 / bframes=12 / b_pyramid=2 / b_adapt=2 / b_bias=0 / direct=3 / weightb=1 / open_gop=0 / weightp=2 / keyint=240 / keyint_min=24 / scenecut=40 / intra_refresh=0 / rc_lookahead=60 / rc=2pass / mbtree=1 / bitrate=1940 / ratetol=1.0 / qcomp=0.60 / qpmin=0 / qpmax=69 / qpstep=4 / cplxblur=20.0 / qblur=0.5 / vbv_maxrate=50000 / vbv_bufsize=62500 / nal_hrd=none / filler=0 / ip_ratio=1.40 / aq=1:0.80
Language : English
Default : Yes
Forced : No
Audio #1
ID : 2
Format : AC-3
Format/Info : Audio Coding 3
Commercial name : Dolby Digital
Codec ID : A_AC3
Duration : 1 h 45 min
Bit rate mode : Constant
Bit rate : 384 kb/s
Channel(s) : 6 channels
Channel layout : L R C LFE Ls Rs
Sampling rate : 48.0 kHz
Frame rate : 31.250 FPS (1536 SPF)
Bit depth : 32 bits
Compression mode : Lossy
Stream size : 290 MiB (14%)
Title : DUB | iTunes
Language : Russian
Service kind : Complete Main
Default : Yes
Forced : No
Audio #2
ID : 3
Format : AC-3
Format/Info : Audio Coding 3
Commercial name : Dolby Digital
Codec ID : A_AC3
Duration : 1 h 45 min
Bit rate mode : Constant
Bit rate : 448 kb/s
Channel(s) : 6 channels
Channel layout : L R C LFE Ls Rs
Sampling rate : 48.0 kHz
Frame rate : 31.250 FPS (1536 SPF)
Bit depth : 32 bits
Compression mode : Lossy
Stream size : 339 MiB (16%)
Title : Original
Language : English
Service kind : Complete Main
Default : No
Forced : No
Text #1
ID : 4
Format : UTF-8
Codec ID : S_TEXT/UTF8
Codec ID/Info : UTF-8 Plain Text
Duration : 1 h 41 min
Bit rate : 88 b/s
Count of elements : 1206
Stream size : 65.9 KiB (0%)
Title : Full
Language : Russian
Default : No
Forced : No
Text #2
ID : 5
Format : UTF-8
Codec ID : S_TEXT/UTF8
Codec ID/Info : UTF-8 Plain Text
Duration : 1 h 43 min
Bit rate : 62 b/s
Count of elements : 1563
Stream size : 47.0 KiB (0%)
Title : SDH
Language : English
Default : No
Forced : No
Menu
00:00:00.000 : :Глава 01
00:08:52.282 : :Глава 02
00:17:08.319 : :Глава 03
00:25:55.262 : :Глава 04
00:34:57.387 : :Глава 05
00:43:02.455 : :Глава 06
00:53:59.528 : :Глава 07
01:03:49.159 : :Глава 08
01:13:14.348 : :Глава 09
01:22:03.836 : :Глава 10
01:30:37.223 : :Глава 11
01:39:01.477 : :Глава 12
Релиз от: &

Автор релиза:
piratbit.org



Скачать Клуб «Кастет» через торрент https://b.radikal.ru/b00/2104/86/31a680a1d907.jpg Скачать фильм Клуб «Кастет» через торрент бесплантно в хорошем качестве Описание: Когда особым агентам полиции поручают разобраться с подпольным клубом Кастет, они сталкиваются с семью кругами ада, наполненными ... 9.8 10 8
Торрент: Зарегистрирован [2021-05-01 10:53] · скачан: 108 раз
Статус: √ проверено
Размер: 2.04 GB
Как cкачать? Как скачать Клуб «Кастет» через торрент | UTorrent

28-11-2019 20:33  

Отключить всю рекламу на сайте

    Дорогой пользователь! Огромная просьба, поблагодарите релизера, оцените раздачу и оставьте свои комментарий, если Вы скачали Клуб «Кастет» через торрент бесплатно! Внесите свою лепту в развитие PiratBit!
    Комментировать посты могут только пользователи прошедшие не сложную регистрацию
    Показать сообщения:    

    Клуб «Кастет» через торрент
    Скачать бесплатно Клуб «Кастет»
    Клуб «Кастет» скачать торрент
    Клуб «Кастет» смотреть онлайн
    Cкачать фильм Клуб «Кастет» бесплатно
    Клуб «Кастет» скачать торрент в хорошем качестве
    Клуб «Кастет» смотреть онлайн бесплатно в хорошем качестве


    Вы не можете начинать темы
    Вы не можете отвечать на сообщения
    Вы не можете редактировать свои сообщения
    Вы не можете удалять свои сообщения
    Вы не можете голосовать в опросах
    Вы не можете прикреплять файлы к сообщениям
    Вы можете скачивать файлы