Достать ножи: Стеклянная луковица

MVO

Добыча

Дубляж

Уэнсдэй

1 сезон

Тор

Дубляж

13 клиническая

1 сезон

Жестокая ночь

MVO

Одни из нас

1 сезон

Deluxe

pack

Рекомендуем

30

Пиратка

ВАЖНО

ВАЖНО

Ghostwire

Пиратка

jed

RePack

nioh2

RePack

RDR2

RePack

NEED FOR SPEED™ PAYBACK

RePack

скачать торрент

Кинопоиск HD

Острые козырьки 6 сезон

6 сезон

FAR CRY 6

RePack

скачать торрент

Лицензия

скачать торрент

MVO

1

1 сезон

скачать торрент

1 сезон

скачать торрент

Лицензия

  

Взаперти / Run (Аниш Чаганти) [2020, триллер, драма, детектив, UHD WEB-DL 2160p, (SDR)] Дубляж [iTunes] +3хMVO (rus, ukr) [Jaskier, NewStudio, AMS]

Взаперти через торрент piratbit.org

Размер: 10.94 GB | Добавлен: 2 года назад | Торрент скачан:209 раз
Смотреть онлайн | Скачать | Поддержите нас   

04-01-2021 23:32 Взаперти Скачать торрент  

Взаперти | Run
Год выпуска: 2020
Страна: США
Выпущено: Lionsgate
Жанр: триллер, драма, детектив
Продолжительность: 01:29:26
Перевод:
#1 Дублированный | iTunes
#2 Профессиональный (многоголосый закадровый) | NewStudio
#3 Профессиональный (многоголосый закадровый) | Jaskier
#4: Профессиональный многоголосый | AMS
Субтитры: Русские (Forced, full), английские

Режиссер: Аниш Чаганти

rating

В ролях: Сара Полсон, Кира Аллен, Онали Эймс, Пэт Хили, Картер Хейнц, Сара Сон, Кларк Уэбстер, Конан Ходжкинсон, Эрик Атхавале, Брэдли Савацки

Описание: Гиперзаботливая мать-одиночка Диана Шерман воспитывает дочь Хлою в полной изоляции, контролируя каждый её шаг. Та прикована к инвалидному креслу, принимает множество таблеток, обучается дома и не общается со сверстниками. Разумеется, Хлоя растет наивной девушкой, но однажды она начинает подозревать что-то неладное.

Качество: UHD WEB-DL 2160p
Формат: MKV

Видео: 3840x2160 at 23.976 fps, MPEG-H HEVC SDR Video, ~ 15300 kbps avg
Аудио #01: 48 kHz, AC3, 5.1, 384 Kbps | Дублированный | iTunes | RUS |
Аудио #02: 48 kHz, AC3, 5.1, 384 Kbps | Профессиональный многоголосый | NewStudio | RUS |
Аудио #03: 48 kHz, AC3, 5.1, 384 Kbps | Профессиональный многоголосый | Jaskier | RUS |
Аудио #04: 48 kHz, AC3, 5.1, 384 Kbps | Профессиональный многоголосый | AMS | RUS |
Аудио #05: 48 kHz, AC3, 5.1, 384 Kbps | Профессиональный многоголосый | В одне рило | UKR |
Аудио #06: 48 kHz, E-AC3, 5.1, 256 Kbps | Оригинал | ENG |
скриншот  скриншот  скриншот  скриншот  скриншот  

General
Unique ID : 50486834622545915850238101003972651272 (0x25FB6920FE4CEFBA23E57776735C2908)
Complete name : E:VideoFirstRun.2020.WEB-DL.2160p.SDR.seleZen.mkv
Format : Matroska
Format version : Version 4
File size : 10.9 GiB
Duration : 1 h 29 min
Overall bit rate : 17.5 Mb/s
Movie name : Run 2020 from seleZen
Encoded date : UTC 2021-01-05 01:05:53
Writing application : mkvmerge v40.0.0 ('Old Town Road + Pony') 64-bit
Writing library : libebml v1.3.9 + libmatroska v1.5.2

Video
ID : 1
Format : HEVC
Format/Info : High Efficiency Video Coding
Format profile : Main 10@L5.1@Main
Codec ID : V_MPEGH/ISO/HEVC
Duration : 1 h 29 min
Bit rate : 15.3 Mb/s
Width : 3 840 pixels
Height : 2 160 pixels
Display aspect ratio : 16:9
Frame rate mode : Constant
Frame rate : 23.976 (24000/1001) FPS
Color space : YUV
Chroma subsampling : 4:2:0
Bit depth : 10 bits
Bits/(Pixel*Frame) : 0.077
Stream size : 9.58 GiB (88%)
Language : English
Default : Yes
Forced : No

Audio #1
ID : 2
Format : AC-3
Format/Info : Audio Coding 3
Commercial name : Dolby Digital
Codec ID : A_AC3
Duration : 1 h 29 min
Bit rate mode : Constant
Bit rate : 384 kb/s
Channel(s) : 6 channels
Channel layout : L R C LFE Ls Rs
Sampling rate : 48.0 kHz
Frame rate : 31.250 FPS (1536 SPF)
Compression mode : Lossy
Stream size : 246 MiB (2%)
Title : Дубляж [iTunes]
Language : Russian
Service kind : Complete Main
Default : Yes
Forced : Yes

Audio #2
ID : 3
Format : AC-3
Format/Info : Audio Coding 3
Commercial name : Dolby Digital
Codec ID : A_AC3
Duration : 1 h 29 min
Bit rate mode : Constant
Bit rate : 384 kb/s
Channel(s) : 6 channels
Channel layout : L R C LFE Ls Rs
Sampling rate : 48.0 kHz
Frame rate : 31.250 FPS (1536 SPF)
Compression mode : Lossy
Stream size : 246 MiB (2%)
Title : MVO [NewStudio]
Language : Russian
Service kind : Complete Main
Default : No
Forced : No

Audio #3
ID : 4
Format : AC-3
Format/Info : Audio Coding 3
Commercial name : Dolby Digital
Codec ID : A_AC3
Duration : 1 h 29 min
Bit rate mode : Constant
Bit rate : 384 kb/s
Channel(s) : 6 channels
Channel layout : L R C LFE Ls Rs
Sampling rate : 48.0 kHz
Frame rate : 31.250 FPS (1536 SPF)
Compression mode : Lossy
Stream size : 246 MiB (2%)
Title : MVO [Jaskier]
Language : Russian
Service kind : Complete Main
Default : No
Forced : No

Audio #4
ID : 5
Format : AC-3
Format/Info : Audio Coding 3
Commercial name : Dolby Digital
Codec ID : A_AC3
Duration : 1 h 29 min
Bit rate mode : Constant
Bit rate : 384 kb/s
Channel(s) : 6 channels
Channel layout : L R C LFE Ls Rs
Sampling rate : 48.0 kHz
Frame rate : 31.250 FPS (1536 SPF)
Compression mode : Lossy
Stream size : 246 MiB (2%)
Title : MVO [AMS]
Language : Russian
Service kind : Complete Main
Default : No
Forced : No

Audio #5
ID : 6
Format : AC-3
Format/Info : Audio Coding 3
Commercial name : Dolby Digital
Codec ID : A_AC3
Duration : 1 h 29 min
Bit rate mode : Constant
Bit rate : 384 kb/s
Channel(s) : 6 channels
Channel layout : L R C LFE Ls Rs
Sampling rate : 48.0 kHz
Frame rate : 31.250 FPS (1536 SPF)
Compression mode : Lossy
Stream size : 246 MiB (2%)
Title : MVO [В одне рило]
Language : Ukrainian
Service kind : Complete Main
Default : No
Forced : No

Audio #6
ID : 7
Format : E-AC-3
Format/Info : Enhanced AC-3
Commercial name : Dolby Digital Plus
Codec ID : A_EAC3
Duration : 1 h 29 min
Bit rate mode : Constant
Bit rate : 256 kb/s
Channel(s) : 6 channels
Channel layout : L R C LFE Ls Rs
Sampling rate : 48.0 kHz
Frame rate : 31.250 FPS (1536 SPF)
Compression mode : Lossy
Stream size : 164 MiB (1%)
Title : Original
Language : English
Service kind : Complete Main
Default : No
Forced : No

Text #1
ID : 8
Format : UTF-8
Codec ID : S_TEXT/UTF8
Codec ID/Info : UTF-8 Plain Text
Duration : 1 h 26 min
Bit rate : 0 b/s
Count of elements : 5
Stream size : 109 Bytes (0%)
Title : Forced
Language : Russian
Default : Yes
Forced : Yes

Text #2
ID : 9
Format : UTF-8
Codec ID : S_TEXT/UTF8
Codec ID/Info : UTF-8 Plain Text
Duration : 1 h 24 min
Bit rate : 48 b/s
Count of elements : 629
Stream size : 30.2 KiB (0%)
Title : Full
Language : Russian
Default : No
Forced : No

Text #3
ID : 10
Format : UTF-8
Codec ID : S_TEXT/UTF8
Codec ID/Info : UTF-8 Plain Text
Duration : 1 h 25 min
Bit rate : 35 b/s
Count of elements : 834
Stream size : 22.0 KiB (0%)
Title : SDH
Language : English
Default : No
Forced : No




Скачать Взаперти через торрент https://d.radikal.ru/d29/2101/8f/f192aba93bad.jpg Скачать, смотреть онлайн Взаперти бесплантно в хорошем качестве Описание: Гиперзаботливая мать-одиночка Диана Шерман воспитывает дочь Хлою в полной изоляции, контролируя каждый её шаг. Та прикована к ... 10 10 9
Info! Золотая раздача, скачанное не засчитывается.
Торрент: Зарегистрирован [2021-01-05 04:37] · скачан: 209 раз
Статус: √ проверено
Размер: 10.94 GB
Как cкачать? Как скачать Взаперти через торрент | UTorrent

% Раздел Тема Автор DL S | L
Фильмы (Blu-ray, BD-Remux, HDDVD) [ 18.66 GB ] Взаперти / Run | Jaskier | BD Remux 1080p bober100 Скачать
1 | 0
Фильмы [HD 720p, 1080p] (Хороший звук DUB, MVO) [ 8.03 GB ] Взаперти / Run | Jaskier | 1080p bober100 Скачать
1 | 0
Фильмы 2019-2020 [DVDrip, WEB-DLRip, HDrip] (DUB, MVO) [ 748 MB ] Взаперти / Run | iTunes | DLRip-AVC Lithuania Скачать
2 | 0
Фильмы (WEB-DL 720p, 1080p) [ 3.02 GB ] Взаперти / Run | iTunes | 720p bober100 Скачать
1 | 0
Фильмы [HD 720p, 1080p] (Хороший звук DUB, MVO) [ 4.73 GB ] Взаперти / Run | Jaskier | 720p bober100 Скачать
1 | 0
Фильмы 2019-2020 [DVDrip, WEB-DLRip, HDrip] (DUB, MVO) [ 1.46 GB ] Взаперти / Run | Jaskier | DLRip bober100 Скачать
1 | 0
Фильмы 2019-2020 [DVDrip, WEB-DLRip, HDrip] (DUB, MVO) [ 1.42 GB ] Взаперти / Run | Лицензия | BDRip Twi7ter Скачать
13 | 0

28-11-2019 20:33  


Отключить вcю реклaмy на сайте, в т.ч. и в плеере онлайн просмотра!

    Дорогой пользователь! Огромная просьба, поблагодарите релизера, оцените раздачу и оставьте свои комментарий, если Вы скачали Взаперти через торрент бесплатно!!
    Комментировать посты могут только пользователи прошедшие не сложную регистрацию
    Показать сообщения:    


    Взаперти через торрент
    Скачать бесплатно Взаперти
    Взаперти скачать торрент
    Взаперти смотреть онлайн
    Cкачать фильм Взаперти бесплатно
    Взаперти скачать торрент в хорошем качестве
    Взаперти смотреть онлайн бесплатно в хорошем качестве
    Вы не можете начинать темы
    Вы не можете отвечать на сообщения
    Вы не можете редактировать свои сообщения
    Вы не можете удалять свои сообщения
    Вы не можете голосовать в опросах
    Вы не можете прикреплять файлы к сообщениям
    Вы можете скачивать файлы
    Взаперти / Run [2020, триллер, драма, детектив, UHD WEB-DL 2160p, ] Дубляж [iTunes] +3хMVO [Jaskier, NewStudio, AMS] смотреть онлайн, скачать торрент picoco.icu