2 сезон

iTunes

MVO

1

2 сезон

iTunes

iTunes

1 сезон

RePack

30

Новинка

ВАЖНО

ИГРА 18+

pack

RePack

MK11
pack

Легкие деньги

RePack

jed

RePack

fifa19

RePack

RDR2

RePack

NEED FOR SPEED™ PAYBACK

4 сезон

9 сезон

Бесстыжие 9 сезон

Все сериалы

все сериалы на PB.wtf

RePack

FAR CRY 5

Anonymous, добрый день, мы не успеваем собрать деньги на оплату серверов за декабрь и январь, помогите нам пожалуйста в это трудное время. В качестве благодарности мы отключим Вам всю рекламу на сайте (укажите свой ник в строку Ваше имя)!

×
  
Magnet ссылка

Истории квартала 3 / Истории из морга 3 / Tales from the Hood 3 (Расти Кандифф, Дэрин Скотт) [2020, Ужасы, BDRip 1080p] DUB [iTunes] piratbit.org

Истории квартала 3 через торрент piratbit.org

Раздают: 2 [ 10 KB/s ]
Размер: 9.27 GB | Добавлен: 13 д. назад | Торрент скачан:41 раз
Скачать  

05-01-2021 13:54 Истории квартала 3 Скачать торрент  

Истории квартала 3 | Истории из морга 3 | Tales from the Hood 3
Год выпуска: 2020
Страна: США
Студия: Universal 1440 Entertainment
Жанр: Ужасы
Продолжительность: 01:42:14
Перевод: Дублированный | iTunes
Субтитры: Английские

Режиссер: Расти Кандифф, Дэрин Скотт

rating

В ролях: Тони Тодд, Линн Уитфилд, Эсе Атауо, Купер Хукаби, Джейм М. Каллика, Лондон Браун, Саванна Бэсли, Донни Лукас, Наташа Барнетт, Черисса Ричардс

Описание: Четыре леденящих душу коротких историй, рассказанных шестилетней девочкой.

Качество: BDRip 1080p
Формат: MKV

Видео: MPEG-4 AVC, 1920x1080, 12.0 Mbit/s, 23.976 fps
Аудио#1: 48 kHz, AC3, 5.1, 384 Kbps | iTunes | RUS |
Аудио#2: 48 kHz, AC3, 5.1, 640 Kbps | Оригинал | ENG |
скриншот  скриншот  скриншот  скриншот  скриншот  

General
Unique ID : 169266993640395357556168416973429689694 (0x7F57A31D3C37ABF53B5CB7F900BC4D5E)
Complete name : E:VideoFirstTales.from.the.Hood.3.2020.BDRip.1080.seleZen.mkv
Format : Matroska
Format version : Version 4
File size : 9.27 GiB
Duration : 1 h 42 min
Overall bit rate : 13.0 Mb/s
Movie name : Tales from the Hood 3 2020 from seleZen
Encoded date : UTC 2021-01-05 12:07:34
Writing application : mkvmerge v40.0.0 ('Old Town Road + Pony') 64-bit
Writing library : libebml v1.3.9 + libmatroska v1.5.2

Video
ID : 1
Format : AVC
Format/Info : Advanced Video Codec
Format profile : High@L4.1
Format settings : CABAC / 4 Ref Frames
Format settings, CABAC : Yes
Format settings, Reference : 4 frames
Codec ID : V_MPEG4/ISO/AVC
Duration : 1 h 42 min
Bit rate : 12.0 Mb/s
Width : 1 920 pixels
Height : 1 080 pixels
Display aspect ratio : 16:9
Frame rate mode : Constant
Frame rate : 23.976 (24000/1001) FPS
Color space : YUV
Chroma subsampling : 4:2:0
Bit depth : 8 bits
Scan type : Progressive
Bits/(Pixel*Frame) : 0.241
Stream size : 8.54 GiB (92%)
Title : HANDJOB
Writing library : x264 core 157 r2935 545de2f
Encoding settings : cabac=1 / ref=4 / deblock=1:-3:-3 / analyse=0x3:0x133 / me=umh / subme=10 / psy=1 / psy_rd=1.00:0.00 / mixed_ref=1 / me_range=32 / chroma_me=1 / trellis=2 / 8x8dct=1 / cqm=0 / deadzone=21,11 / fast_pskip=0 / chroma_qp_offset=-2 / threads=34 / lookahead_threads=8 / sliced_threads=0 / nr=0 / decimate=0 / interlaced=0 / bluray_compat=0 / constrained_intra=0 / bframes=16 / b_pyramid=2 / b_adapt=2 / b_bias=0 / direct=3 / weightb=1 / open_gop=0 / weightp=2 / keyint=240 / keyint_min=24 / scenecut=40 / intra_refresh=0 / rc_lookahead=60 / rc=crf / mbtree=0 / crf=16.5 / qcomp=0.60 / qpmin=0 / qpmax=69 / qpstep=4 / vbv_maxrate=62500 / vbv_bufsize=78125 / crf_max=0.0 / nal_hrd=none / filler=0 / ip_ratio=1.40 / pb_ratio=1.30 / aq=2:1.00
Language : English
Default : Yes
Forced : No
Color range : Limited
Color primaries : BT.709
Transfer characteristics : BT.709
Matrix coefficients : BT.709

Audio #1
ID : 2
Format : AC-3
Format/Info : Audio Coding 3
Commercial name : Dolby Digital
Codec ID : A_AC3
Duration : 1 h 42 min
Bit rate mode : Constant
Bit rate : 384 kb/s
Channel(s) : 6 channels
Channel layout : L R C LFE Ls Rs
Sampling rate : 48.0 kHz
Frame rate : 31.250 FPS (1536 SPF)
Compression mode : Lossy
Stream size : 281 MiB (3%)
Title : iTunes
Language : Russian
Service kind : Complete Main
Default : Yes
Forced : Yes

Audio #2
ID : 3
Format : AC-3
Format/Info : Audio Coding 3
Commercial name : Dolby Digital
Codec ID : A_AC3
Duration : 1 h 42 min
Bit rate mode : Constant
Bit rate : 640 kb/s
Channel(s) : 6 channels
Channel layout : L R C LFE Ls Rs
Sampling rate : 48.0 kHz
Frame rate : 31.250 FPS (1536 SPF)
Compression mode : Lossy
Stream size : 468 MiB (5%)
Title : Original
Language : English
Service kind : Complete Main
Default : No
Forced : No

Text
ID : 4
Format : UTF-8
Codec ID : S_TEXT/UTF8
Codec ID/Info : UTF-8 Plain Text
Duration : 1 h 36 min
Bit rate : 54 b/s
Count of elements : 1379
Stream size : 38.7 KiB (0%)
Title : SDH
Language : English
Default : No
Forced : No

Menu
00:00:00.000 : en:Chapter 01
00:10:00.850 : en:Chapter 02
00:20:02.159 : en:Chapter 03
00:30:01.967 : en:Chapter 04
00:40:01.065 : en:Chapter 05
00:50:04.126 : en:Chapter 06
01:00:04.100 : en:Chapter 07
01:10:04.617 : en:Chapter 08
01:20:05.634 : en:Chapter 09
01:30:05.483 : en:Chapter 10
01:37:21.085 : en:Chapter 11

piratbit.org



Скачать Истории квартала 3 через торрент https://i114.fastpic.ru/big/2021/0105/2a/e2e5d2a2a2ef7d649a353a658205ed2a.jpg Скачать фильм Истории квартала 3 через торрент бесплантно в хорошем качестве Описание: Четыре леденящих душу коротких историй, рассказанных шестилетней ... 10 10 4
Торрент: Зарегистрирован [2021-01-05 13:54] · скачан: 41 раз
Статус: √ проверено
Размер: 9.27 GB
Как cкачать? Как скачать Истории квартала 3 через торрент | UTorrent

% Раздел Тема Автор DL S | L
Фильмы 2019-2020 [DVDrip, WEB-DLRip, HDrip] (DUB, MVO) [ 745 MB ] Истории квартала 3 / Истории из морга 3 / Tales from the Hood 3 [2020 HDRip-AVC] от MediaBit Lithuania Скачать
1 | 0
Фильмы (Blu-ray, BD-Remux, HDDVD) [ 17.56 GB ] Истории квартала 3 / Истории из морга 3 / Tales from the Hood 3 [2020 BD Remux 1080p] bober100 Скачать
1 | 0
Фильмы [HD 720p, 1080p] (Хороший звук DUB, MVO) [ 5.59 GB ] Истории квартала 3 / Истории из морга 3 / Tales from the Hood 3 [2020 BDRip 720p] bober100 Скачать
2 | 0
Фильмы 2019-2020 [DVDrip, WEB-DLRip, HDrip] (DUB, MVO) [ 1.42 GB ] Истории квартала 3 / Истории из морга 3 / Tales from the Hood 3 [2020 BDRip] bober100 Скачать
8 | 0

28-11-2019 20:33  

Отключить всю рекламу на сайте

13-01-2021 21:10 Истории квартала 3 Скачать торрент  

байки из склепа что ли очередные?piratbit.org



    Дорогой пользователь! Огромная просьба, поблагодарите релизера, оцените раздачу и оставьте свои комментарий, если Вы скачали Истории квартала 3 через торрент бесплатно! Внесите свою лепту в развитие PiratBit!
    Комментировать посты могут только пользователи прошедшие не сложную регистрацию
    Показать сообщения:    

    Истории квартала 3 через торрент
    Скачать бесплатно Истории квартала 3
    Истории квартала 3 скачать торрент
    Истории квартала 3 смотреть онлайн
    Cкачать фильм Истории квартала 3 бесплатно
    Истории квартала 3 скачать торрент в хорошем качестве
    Истории квартала 3 смотреть онлайн бесплатно в хорошем качестве


    Вы не можете начинать темы
    Вы не можете отвечать на сообщения
    Вы не можете редактировать свои сообщения
    Вы не можете удалять свои сообщения
    Вы не можете голосовать в опросах
    Вы не можете прикреплять файлы к сообщениям
    Вы можете скачивать файлы