2 сезон

iTunes

MVO

1

2 сезон

iTunes

iTunes

1 сезон

RePack

30

Ultimate

ВАЖНО

ИГРА 18+

pack

RePack

MK11
pack

Легкие деньги

RePack

jed

RePack

fifa19

RePack

RDR2

RePack

NEED FOR SPEED™ PAYBACK

4 сезон

9 сезон

Бесстыжие 9 сезон

Все сериалы

все сериалы на PB.wtf

RePack

FAR CRY 5

Anonymous, добрый вечер, мы не успеваем собрать деньги на оплату серверов за декабрь и январь, помогите нам пожалуйста в это трудное время. В качестве благодарности мы отключим Вам всю рекламу на сайте (укажите свой ник в строку Ваше имя)!

×
  
Magnet ссылка

Стража / The Watch / Сезон: 1 / Серии: 1-4 из 8 (Эмма Салливан, Крэйг Вивейрос, Брайан Келли) [2021, фэнтези, боевик, триллер, WEB-DLRip] DUB [Novamedia] piratbit.org

Стража через торрент piratbit.org

Раздают: 5 [ 107 KB/s ] Качают: 2 [ 0 KB/s ]
Размер: 2.35 GB | Добавлен: 4 д. назад | Торрент скачан:10 раз
Скачать  

06-01-2021 06:28 Стража Скачать торрент  

Стража | The Watch
«***»
Год выпуска: 2020
Страна: Великобритания
Выпущено: BBC Studios, Narrativia
Жанр: Фэнтези, боевик, триллер, драма, приключения
Продолжительность: ~ 00:44:00 серия
Перевод: Дублированный | Novamedia
Субтитры: отсутствуют

Режиссер: Эмма Салливан, Крэйг Вивейрос, Брайан Келли

rating

В ролях: Сэмюэл Адевунми (Samuel Adewunmi), Марама Корлетт (Marama Corlett), Ричард Дормер (Richard Dormer), Джо Итон-Кент (Jo Eaton-Kent), Адам Хагилл (Adam Hugill), Лара Росси (Lara Rossi), Уенделл Пирс (Wendell Pierce), Джо Ваз (Joe Vaz), Мэтт Берри (Matt Berry), Ралф Айнесон (Ralph Ineson), Рут Маделей (Ruth Madeley), Ингрид Оливер (Ingrid Oliver)

Описание: В городе Анк-Морпорк преступления разрешены законом. Здесь обитают люди и расы со всего Плоского мира, бок о бок живут тролли, гномы, големы, вампиры, оборотни, зомби. Все они не просто сосуществуют, но и борются за свои права и равенство. Именно в этом гигантском кипящем котле нечистот должны нести службу стражники, с которыми никто не считается, и которые давно оставили попытки поддерживать закон. Но появление решительного новичка и ошибка прошлого заставят стражу и ее капитана вспомнить о долге.

Качество: WEB-DLRip
Формат: AVI

Видео: XviD, ~ 720x400 at 23.976 fps, ~1500 kbps avg
Аудио: AC3 Dolby Digital, 48.0 kHz, 2/0 (L,R) ch, 192 kbps
Аудио: AC3 Dolby Digital, 48.0 kHz, 2/0 (L,R) ch, 192 kbps
скриншот  скриншот  скриншот  скриншот  скриншот  

Общее
Полное имя : C:\The Watch.2020. WEBDLRip.Amediia\01. The Watch.2020. WEBDLRip.Amediia.avi
Формат : AVI
Формат/Информация : Audio Video Interleave
Размер файла : 611 Мбайт
Продолжительность : 43 м. 10 с.
Общий поток : 1980 Кбит/сек
Программа кодирования : VirtualDubMod 1.5.10.3 | www.virtualdub-fr.org || (build 2550/release)
Библиотека кодирования : VirtualDubMod build 2550/release
IsTruncated : Yes

Видео
Идентификатор : 0
Формат : MPEG-4 Visual
Профиль формата : Advanced Simple@L5
Настройки формата : BVOP2
Параметр BVOP формата : 2
Параметр QPel формата : Нет
Параметр GMC формата : Без точки перехода
Параметр матрицы формата : Default (H.263)
Идентификатор кодека : XVID
Идентификатор кодека/Подсказка : XviD
Продолжительность : 43 м. 10 с.
Битрейт : 1506 Кбит/сек
Ширина : 720 пикселей
Высота : 400 пикселей
Соотношение сторон : 16:9
Частота кадров : 25,000 кадров/сек
Цветовое пространство : YUV
Субдискретизация насыщенности : 4:2:0
Битовая глубина : 8 бит
Тип развёртки : Прогрессивная
Метод сжатия : С потерями
Бит/(Пиксели*Кадры) : 0.209
Размер потока : 465 Мбайт (76%)
Библиотека кодирования : XviD 1.2.1 (UTC 2008-12-04)

Аудио #1
Идентификатор : 1
Формат : AC-3
Формат/Информация : Audio Coding 3
Коммерческое название : Dolby Digital
Идентификатор кодека : 2000
Продолжительность : 43 м. 9 с.
Вид битрейта : Постоянный
Битрейт : 192 Кбит/сек
Каналы : 2 канала
ChannelLayout : L R
Частота : 48,0 КГц
Частота кадров : 31,250 кадров/сек (1536 SPF)
Битовая глубина : 16 бит
Метод сжатия : С потерями
Размер потока : 59,3 Мбайт (10%)
Выравнивание : Разделение по промежуткам
ServiceKind/String : Complete Main

Аудио #2
Идентификатор : 2
Формат : AC-3
Формат/Информация : Audio Coding 3
Коммерческое название : Dolby Digital
Идентификатор кодека : 2000
Продолжительность : 43 м. 10 с.
Вид битрейта : Постоянный
Битрейт : 192 Кбит/сек
Каналы : 2 канала
ChannelLayout : L R
Частота : 48,0 КГц
Частота кадров : 31,250 кадров/сек (1536 SPF)
Битовая глубина : 16 бит
Метод сжатия : С потерями
Размер потока : 59,3 Мбайт (10%)
Выравнивание : Разделение по промежуткам
ServiceKind/String : Complete Main

Внимание! Раздача ведётся путём добавления новых серий; при каждом добавлении создаётся новый торрент.
Чтобы начать докачку новой серии, пользователям необходимо сделать следующее:
1. Остановить скачивание;
2. Удалить старый торрент у себя из клиента (старые серии удалять не надо);
3. Скачать новый торрент и запустить его у себя в клиенте вместо старого, при этом указать клиенту путь в старую папку куда и должно происходить скачивание новых серий. Ваш клиент при этом должен произвести хеширование (проверку) старой папки и будет докачивать только те серии, которых у вас ещё нет. Старые серии при этом не удаляются, а продолжают раздаваться! Eсли вы уже удалили старые серии, то предотвратить повторную закачку старых серий можно, отжав галочку в соответствующих местах при запуске нового торрента.

piratbit.org



Скачать Стража через торрент https://funkyimg.com/i/39Rwf.png Скачать фильм Стража через торрент бесплантно в хорошем качестве Описание: В городе Анк-Морпорк преступления разрешены законом. Здесь обитают люди и расы со всего Плоского мира, бок о бок живут тролли, ... 10 10 5
Торрент: Зарегистрирован [2021-01-20 04:46] · скачан: 10 раз
Статус: √ проверено
Размер: 2.35 GB
Как cкачать? Как скачать Стража через торрент | UTorrent

% Раздел Тема Автор DL S | L
Зарубежные сериалы [ 2.15 GB ] Стража / The Watch / Сезон: 1 / Серии: 1-4 из 8 [2020 WEB-DLRip] [MVO] killermax2013 Скачать
10 | 1
Зарубежные сериалы [ 3.45 GB ] Стража / The Watch / Сезон: 1 / Серии: 1-4 из 8 [2020 WEB-DLRip-AVC] 2xMVO [LostFilm NewStudio] GEKADOL Скачать
3 | 2
Зарубежные сериалы [ 10.89 GB ] Стража / The Watch / Сезон: 1 / Серии: 1-4 из 8 [2021 WEB-DL 1080p] DUB [Novamedia] +DVO [Кубик в Кубе] bober100 Скачать
12 | 3
Зарубежные сериалы [ 7.02 GB ] Стража / The Watch / Сезон: 1 / Серии: 1-4 из 8 [2020 WEB-DL 720p] 3xMVO [LostFilm NewStudio TVShows] +DUB [Novamedia] +DVO [Кубик в Кубе] bober100 Скачать
3 | 3
Зарубежные сериалы [ 1.98 GB ] Стража / The Watch / Сезон: 1 / Серии: 1-4 из 8 [2020 WEB-DLRip] MVO [NewStudio] bober100 Скачать
9 | 0
Зарубежные сериалы [ 1.42 GB ] Стража / The Watch / Сезон: 1 / Серии: 1-4 из 8 [2020 WEBRip] MVO [HDRezka Studio] bober100 Скачать
6 | 6

28-11-2019 20:33  

Отключить всю рекламу на сайте

    Дорогой пользователь! Огромная просьба, поблагодарите релизера, оцените раздачу и оставьте свои комментарий, если Вы скачали Стража через торрент бесплатно! Внесите свою лепту в развитие PiratBit!
    Комментировать посты могут только пользователи прошедшие не сложную регистрацию
    Показать сообщения:    

    Стража через торрент
    Скачать бесплатно Стража
    Стража скачать торрент
    Стража смотреть онлайн
    Cкачать фильм Стража бесплатно
    Стража скачать торрент в хорошем качестве
    Стража смотреть онлайн бесплатно в хорошем качестве


    Вы не можете начинать темы
    Вы не можете отвечать на сообщения
    Вы не можете редактировать свои сообщения
    Вы не можете удалять свои сообщения
    Вы не можете голосовать в опросах
    Вы не можете прикреплять файлы к сообщениям
    Вы можете скачивать файлы