Достать ножи: Стеклянная луковица

MVO

Добыча

Дубляж

Уэнсдэй

1 сезон

Тор

Дубляж

13 клиническая

1 сезон

Жестокая ночь

MVO

Одни из нас

1 сезон

Deluxe

pack

Рекомендуем

30

Пиратка

ВАЖНО

ВАЖНО

Ghostwire

Пиратка

jed

RePack

nioh2

RePack

RDR2

RePack

NEED FOR SPEED™ PAYBACK

RePack

скачать торрент

Кинопоиск HD

Острые козырьки 6 сезон

6 сезон

FAR CRY 6

RePack

скачать торрент

Лицензия

скачать торрент

MVO

1

1 сезон

скачать торрент

1 сезон

скачать торрент

Лицензия

  

Ип Ман / Yip Man / Ip Man (Уилсон Ип) [2008, Боевик, биография, история, UHD BDRemux 2160p] 2xMVO+2xDVO+AVO+VO

Ип Ман через торрент piratbit.org

Размер: 44.05 GB | Добавлен: 2 года назад | Торрент скачан:76 раз
Смотреть онлайн | Скачать | Поддержите нас   

06-01-2021 18:41 Ип Ман Скачать торрент  

Ип Ман | Yip Man | Ip Man
Год выпуска: 2008
Страна: Гонконг
Студия: Mandarin Films Distribution Co.
Жанр: Боевик, биография, история
Продолжительность: 01:46:29
Перевод: Профессиональный многоголосый, профессиональный двухголосый, профессиональный одноголосый, авторский
Субтитры: Русские (Forced, full), английские

Режиссер: Уилсон Ип

rating

В ролях: Донни Йен, Саймон Ям, Фан Сиу Вонг, Гордон Лам, Ксинг Ю, Вонг Ю Нам, Чен Жи Хуи, Хироюки Икэути, Маллика Шерават

Описание: Ип Ман — признанный мастер кунг фу, живущий в Фуошане, городе, славном своими школами боевых искусств. Ип Ман практикует Вин Чун и хотя является сильнейшим бойцом города, своей школы у него нет, и он не берет учеников. Дома он проводит лишь легкие спарринги с приятелями, что бы указать на ошибки друг друга. Проходят годы, Китай захватывают воинственные японцы, и Ип Ман оказывается одним из немногих, кто даже в жесточайших условиях оккупации не забывает о чести, достоинстве и, конечно же, мудрости, которую несет в себе кунг фу.

Качество: UHD BDRemux 2160p
Формат: MKV

Видео: 3840x2160 at 24.000 fps, MPEG-H HEVC HDR Video, ~ 50000 kbps avg
Аудио #01: Russian: 48 kHz, AC3, 2/0 (L,R) ch, ~192.00 kbps avg |Многоголосый закадровый, CTC|
Аудио #02: Russian: 48 kHz, AC3, 2/0 (L,R) ch, ~192.00 kbps avg |Двухголосый закадровый, HTB+|
Аудио #03: Russian: 48 kHz, AC3, 3/2 (L,C,R,l,r) + LFE ch, ~384 kbps avg |Двухголосый закадровый, R5|
Аудио #04: Russian: 48 kHz, AC3, 3/2 (L,C,R,l,r) + LFE ch, ~448 kbps avg |Многоголосый закадровый, Gremlin Creative Studio|
Аудио #05: Russian: 48 kHz, AC3, 3/2 (L,C,R,l,r) + LFE ch, ~640 kbps avg |Одноголосый закадровый, Сербин|
Аудио #06: Russian: 48 kHz, DTS, 3/2 (L,C,R,l,r) + LFE ch, ~1509.00 kbps avg |Одноголосый закадровый, CinemaSET|
Аудио #07: Chinese (Cantonese): 48 kHz, 48 kHz, TrueHD, 7.1, 5176 Kbps avg
Аудио #08: Chinese (Cantonese): 48 kHz, 48 kHz, AC3, 5.1, 640 Kbps avg
скриншот  скриншот  скриншот  скриншот  скриншот  

General
Unique ID : 242501411217700271323183706089002459393 (0xB67012AC543EF79EA464AD05749D6101)
Complete name : E:VideoFirstIp.Man.2008.BDREMUX.2160p.HDR.seleZen.mkv
Format : Matroska
Format version : Version 4
File size : 44.0 GiB
Duration : 1 h 46 min
Overall bit rate mode : Variable
Overall bit rate : 59.2 Mb/s
Movie name : Ip Man 2008 4K UHD from seleZen
Encoded date : UTC 2021-01-06 14:47:16
Writing application : mkvmerge v40.0.0 ('Old Town Road + Pony') 64-bit
Writing library : libebml v1.3.9 + libmatroska v1.5.2

Video
ID : 1
Format : HEVC
Format/Info : High Efficiency Video Coding
Format profile : Main 10@L5.1@High
HDR format : SMPTE ST 2086, HDR10 compatible
Codec ID : V_MPEGH/ISO/HEVC
Duration : 1 h 46 min
Bit rate : 50.0 Mb/s
Width : 3 840 pixels
Height : 2 160 pixels
Display aspect ratio : 16:9
Frame rate mode : Constant
Frame rate : 24.000 FPS
Color space : YUV
Chroma subsampling : 4:2:0 (Type 2)
Bit depth : 10 bits
Bits/(Pixel*Frame) : 0.251
Stream size : 37.2 GiB (84%)
Language : Chinese
Default : Yes
Forced : No
Color range : Limited
Color primaries : BT.2020
Transfer characteristics : PQ
Matrix coefficients : BT.2020 non-constant
Mastering display color pri : BT.2020
Mastering display luminance : min: 0.0001 cd/m2, max: 1000 cd/m2
Maximum Content Light Level : 462 cd/m2
Maximum Frame-Average Light : 284 cd/m2

Audio #1
ID : 2
Format : AC-3
Format/Info : Audio Coding 3
Commercial name : Dolby Digital
Codec ID : A_AC3
Duration : 1 h 46 min
Bit rate mode : Constant
Bit rate : 192 kb/s
Channel(s) : 2 channels
Channel layout : L R
Sampling rate : 48.0 kHz
Frame rate : 31.250 FPS (1536 SPF)
Compression mode : Lossy
Stream size : 146 MiB (0%)
Title : Многоголосый закадровый, CTC
Language : Russian
Service kind : Complete Main
Default : Yes
Forced : Yes

Audio #2
ID : 3
Format : AC-3
Format/Info : Audio Coding 3
Commercial name : Dolby Digital
Codec ID : A_AC3
Duration : 1 h 46 min
Bit rate mode : Constant
Bit rate : 192 kb/s
Channel(s) : 2 channels
Channel layout : L R
Sampling rate : 48.0 kHz
Frame rate : 31.250 FPS (1536 SPF)
Compression mode : Lossy
Stream size : 146 MiB (0%)
Title : Двухголосый закадровый, HTB+
Language : Russian
Service kind : Complete Main
Default : No
Forced : No

Audio #3
ID : 4
Format : AC-3
Format/Info : Audio Coding 3
Commercial name : Dolby Digital
Codec ID : A_AC3
Duration : 1 h 46 min
Bit rate mode : Constant
Bit rate : 384 kb/s
Channel(s) : 6 channels
Channel layout : L R C LFE Ls Rs
Sampling rate : 48.0 kHz
Frame rate : 31.250 FPS (1536 SPF)
Compression mode : Lossy
Stream size : 293 MiB (1%)
Title : Двухголосый закадровый, R5
Language : Russian
Service kind : Complete Main
Default : No
Forced : No

Audio #4
ID : 5
Format : AC-3
Format/Info : Audio Coding 3
Commercial name : Dolby Digital
Codec ID : A_AC3
Duration : 1 h 46 min
Bit rate mode : Constant
Bit rate : 448 kb/s
Channel(s) : 6 channels
Channel layout : L R C LFE Ls Rs
Sampling rate : 48.0 kHz
Frame rate : 31.250 FPS (1536 SPF)
Compression mode : Lossy
Stream size : 341 MiB (1%)
Title : Многоголосый закадровый, Gremlin Creative Studio
Language : Russian
Service kind : Complete Main
Default : No
Forced : No

Audio #5
ID : 6
Format : AC-3
Format/Info : Audio Coding 3
Commercial name : Dolby Digital
Codec ID : A_AC3
Duration : 1 h 46 min
Bit rate mode : Constant
Bit rate : 640 kb/s
Channel(s) : 6 channels
Channel layout : L R C LFE Ls Rs
Sampling rate : 48.0 kHz
Frame rate : 31.250 FPS (1536 SPF)
Compression mode : Lossy
Stream size : 488 MiB (1%)
Title : Одноголосый закадровый, Сербин
Language : Russian
Service kind : Complete Main
Default : No
Forced : No

Audio #6
ID : 7
Format : DTS
Format/Info : Digital Theater Systems
Codec ID : A_DTS
Duration : 1 h 46 min
Bit rate mode : Constant
Bit rate : 1 510 kb/s
Channel(s) : 6 channels
Channel layout : C L R Ls Rs LFE
Sampling rate : 48.0 kHz
Frame rate : 93.750 FPS (512 SPF)
Bit depth : 24 bits
Compression mode : Lossy
Stream size : 1.12 GiB (3%)
Title : Одноголосый закадровый, CinemaSET
Language : Russian
Default : No
Forced : No

Audio #7
ID : 8
Format : MLP FBA 16-ch
Format/Info : Meridian Lossless Packing FBA with 16-channel presentation
Commercial name : Dolby TrueHD with Dolby Atmos
Codec ID : A_TRUEHD
Duration : 1 h 46 min
Bit rate mode : Variable
Bit rate : 5 176 kb/s
Maximum bit rate : 7 488 kb/s
Channel(s) : 8 channels
Channel layout : L R C LFE Ls Rs Lb Rb
Sampling rate : 48.0 kHz
Frame rate : 1 200.000 FPS (40 SPF)
Compression mode : Lossless
Stream size : 3.85 GiB (9%)
Title : Original
Language : Chinese
Default : No
Forced : No
Number of dynamic objects : 11
Bed channel count : 1 channel
Bed channel configuration : LFE

Audio #8
ID : 9
Format : AC-3
Format/Info : Audio Coding 3
Commercial name : Dolby Digital
Format settings : Dolby Surround EX
Codec ID : A_AC3
Duration : 1 h 46 min
Bit rate mode : Constant
Bit rate : 640 kb/s
Channel(s) : 6 channels
Channel layout : L R C LFE Ls Rs
Sampling rate : 48.0 kHz
Frame rate : 31.250 FPS (1536 SPF)
Compression mode : Lossy
Stream size : 488 MiB (1%)
Language : Chinese
Service kind : Complete Main
Default : No
Forced : No

Text #1
ID : 10
Format : UTF-8
Codec ID : S_TEXT/UTF8
Codec ID/Info : UTF-8 Plain Text
Duration : 1 h 41 min
Bit rate : 3 b/s
Count of elements : 16
Stream size : 2.89 KiB (0%)
Title : Forced
Language : Russian
Default : Yes
Forced : Yes

Text #2
ID : 11
Format : UTF-8
Codec ID : S_TEXT/UTF8
Codec ID/Info : UTF-8 Plain Text
Duration : 1 h 41 min
Bit rate : 72 b/s
Count of elements : 952
Stream size : 54.2 KiB (0%)
Title : Full
Language : Russian
Default : No
Forced : No

Text #3
ID : 12
Format : UTF-8
Codec ID : S_TEXT/UTF8
Codec ID/Info : UTF-8 Plain Text
Duration : 1 h 41 min
Bit rate : 36 b/s
Count of elements : 906
Stream size : 27.1 KiB (0%)
Title : Full
Language : English
Default : No
Forced : No

Menu
00:00:00.000 : en:A Lesson With Master Ip
00:07:47.250 : en:A Ruined Reputation
00:14:39.208 : en:Disperse While Hitting
00:17:50.041 : en:The Challenger
00:24:37.791 : en:The Best Of Fo Shan
00:28:16.625 : en:Honor Of Fo Shan
00:35:04.958 : en:Homeless & Hungry
00:40:56.625 : en:Martial Artists Wanted
00:46:38.875 : en:Fight For Rice
00:51:21.375 : en:Where's Lin?
00:56:17.125 : en:One Vs. Ten
01:01:54.916 : en:Traitor
01:06:37.416 : en:Cotton Mill Thieves
01:09:25.541 : en:The First Disciples
01:12:35.708 : en:Find Ip Man
01:18:42.375 : en:Protector Of The People
01:26:03.750 : en:I'm Ip Man
01:29:32.708 : en:Fight For The Country
01:33:50.000 : en:Self Sacrifice
01:41:33.083 : en:Wing Chun
01:43:28.708 : en:End Credits




Скачать Ип Ман через торрент https://i114.fastpic.ru/big/2021/0106/78/2a1ee1f160240ec8dee4b7967e777378.jpg Скачать, смотреть онлайн Ип Ман бесплантно в хорошем качестве Описание: Ип Ман — признанный мастер кунг фу, живущий в Фуошане, городе, славном своими школами боевых искусств. Ип Ман практикует Вин Чун ... 10 10 5
Info! Золотая раздача, скачанное не засчитывается.
Торрент: Зарегистрирован [2021-01-06 18:41] · скачан: 76 раз
Статус: √ проверено
Размер: 44.05 GB
Как cкачать? Как скачать Ип Ман через торрент | UTorrent

28-11-2019 20:33  


Отключить вcю реклaмy на сайте, в т.ч. и в плеере онлайн просмотра!

    Дорогой пользователь! Огромная просьба, поблагодарите релизера, оцените раздачу и оставьте свои комментарий, если Вы скачали Ип Ман через торрент бесплатно!!
    Комментировать посты могут только пользователи прошедшие не сложную регистрацию
    Показать сообщения:    


    Ип Ман через торрент
    Скачать бесплатно Ип Ман
    Ип Ман скачать торрент
    Ип Ман смотреть онлайн
    Cкачать фильм Ип Ман бесплатно
    Ип Ман скачать торрент в хорошем качестве
    Ип Ман смотреть онлайн бесплатно в хорошем качестве
    Вы не можете начинать темы
    Вы не можете отвечать на сообщения
    Вы не можете редактировать свои сообщения
    Вы не можете удалять свои сообщения
    Вы не можете голосовать в опросах
    Вы не можете прикреплять файлы к сообщениям
    Вы можете скачивать файлы
    Ип Ман / Yip Man / Ip Man [2008, Боевик, биография, история, UHD BDRemux 2160p] 2xMVO+2xDVO+AVO+VO смотреть онлайн, скачать торрент picoco.icu