2 сезон

iTunes

MVO

1

2 сезон

iTunes

iTunes

1 сезон

RePack

30

Новинка

ВАЖНО

ИГРА 18+

pack

RePack

MK11
pack

Легкие деньги

RePack

jed

RePack

fifa19

RePack

RDR2

RePack

NEED FOR SPEED™ PAYBACK

4 сезон

9 сезон

Бесстыжие 9 сезон

Все сериалы

все сериалы на PB.wtf

RePack

FAR CRY 5

Anonymous, доброй ночи, мы не успеваем собрать деньги на оплату серверов за декабрь и январь, помогите нам пожалуйста в это трудное время. В качестве благодарности мы отключим Вам всю рекламу на сайте (укажите свой ник в строку Ваше имя)!

×
  
Magnet ссылка

Страна грёз / Dreamland (Майлз Джорис-Пейрафит) [2019, Триллер, драма, BDRip 720p] DUB [iTunes] piratbit.org

Страна грёз через торрент piratbit.org

Раздают: 3 [ 117 KB/s ]
Размер: 6.1 GB | Добавлен: 6 д. назад | Торрент скачан:60 раз
Скачать  

10-01-2021 17:36 Страна грёз Скачать торрент  

Страна грёз | Dreamland
Год выпуска: 2019
Страна: США
Выпущено: Automatik Entertainment, LuckyChap Entertainment, Romulus Entertainment
Жанр: Триллер, драма
Продолжительность: 01:41:00
Перевод: Дублированный | iTunes
Субтитры: Английские

Режиссер: Майлз Джорис-Пейрафит

rating

В ролях: Марго Робби, Трэвис Фиммел, Гаррет Хедлунд, Финн Коул, Керри Кондон, Дэрби Кэмп, Лола Кёрк, Тим Дженис, Пэб Швендиманн, Грэйсон Берри

Описание: 1930-е годы. 17-летний Юджин Эванс охотится за грабительницей банков, за чью голову обещают денежное вознаграждение, надеясь таким образом спасти семейную ферму от долгов.

Качество: BDRip 720p
Формат: MKV

Видео: MPEG-4 AVC, 1280x536, 7626 Kbit/s, 23.976 fps
Аудио#1: 48 kHz, AC3, 5.1, 384 Kbps | iTunes | RUS |
Аудио#2: 48 kHz, AC3, 5.1, 640 Kbps | Оригинал | ENG |
скриншот  скриншот  скриншот  скриншот  скриншот  

General
Unique ID : 62321736647747261503981421437486039778 (0x2EE2BAD963E40DA55C179D87FDEB02E2)
Complete name : E:VideoFirstDreamland.2019.BDRip.720p.seleZen.mkv
Format : Matroska
Format version : Version 4
File size : 6.10 GiB
Duration : 1 h 41 min
Overall bit rate : 8 651 kb/s
Movie name : Dreamland 2019 from seleZen
Encoded date : UTC 2021-01-10 16:38:23
Writing application : mkvmerge v40.0.0 ('Old Town Road + Pony') 64-bit
Writing library : libebml v1.3.9 + libmatroska v1.5.2

Video
ID : 1
Format : AVC
Format/Info : Advanced Video Codec
Format profile : High@L4.1
Format settings : CABAC / 12 Ref Frames
Format settings, CABAC : Yes
Format settings, Reference : 12 frames
Codec ID : V_MPEG4/ISO/AVC
Duration : 1 h 41 min
Bit rate : 7 626 kb/s
Width : 1 280 pixels
Height : 536 pixels
Display aspect ratio : 2.40:1
Frame rate mode : Constant
Frame rate : 23.976 (24000/1001) FPS
Color space : YUV
Chroma subsampling : 4:2:0
Bit depth : 8 bits
Scan type : Progressive
Bits/(Pixel*Frame) : 0.464
Stream size : 5.38 GiB (88%)
Title : iFT
Writing library : x264 core 161 r3018+53 ~ Encoded by Mocunaman in Portugal
Encoding settings : cabac=1 / ref=12 / deblock=1:-3:-3 / analyse=0x3:0x113 / me=umh / subme=11 / psy=1 / fade_compensate=0.00 / psy_rd=1.00:0.00 / mixed_ref=1 / me_range=32 / chroma_me=1 / trellis=2 / 8x8dct=1 / cqm=0 / deadzone=21,11 / fast_pskip=0 / chroma_qp_offset=-2 / threads=17 / lookahead_threads=2 / sliced_threads=0 / nr=0 / decimate=0 / interlaced=0 / bluray_compat=0 / constrained_intra=0 / fgo=0 / bframes=9 / b_pyramid=2 / b_adapt=2 / b_bias=0 / direct=3 / weightb=1 / open_gop=0 / weightp=2 / keyint=250 / keyint_min=23 / scenecut=40 / intra_refresh=0 / rc_lookahead=60 / rc=crf / mbtree=0 / crf=15.7000 / qcomp=0.60 / qpmin=0:0:0 / qpmax=69:69:69 / qpstep=4 / vbv_maxrate=62500 / vbv_bufsize=78125 / crf_max=0.0 / nal_hrd=none / filler=0 / ip_ratio=1.30 / pb_ratio=1.20 / aq=3:0.80 / aq-sensitivity=10.00 / aq-factor=1.00:1.00:1.00 / aq2=0 / aq3=0 / zones=2950,3604,crf=14.2/4893,5123,crf=15.2/15184,36268,crf=14.2/48799,50135,crf=14.2/51448,56271,crf=14.2/66304,69040,crf=14.2/83051,83740,crf=15.2/84808,88802,crf=13.7
Language : English
Default : Yes
Forced : No
Color range : Limited
Color primaries : BT.709
Transfer characteristics : BT.709
Matrix coefficients : BT.709

Audio #1
ID : 2
Format : AC-3
Format/Info : Audio Coding 3
Commercial name : Dolby Digital
Codec ID : A_AC3
Duration : 1 h 40 min
Bit rate mode : Constant
Bit rate : 384 kb/s
Channel(s) : 6 channels
Channel layout : L R C LFE Ls Rs
Sampling rate : 48.0 kHz
Frame rate : 31.250 FPS (1536 SPF)
Compression mode : Lossy
Stream size : 277 MiB (4%)
Title : iTunes
Language : Russian
Service kind : Complete Main
Default : Yes
Forced : Yes

Audio #2
ID : 3
Format : AC-3
Format/Info : Audio Coding 3
Commercial name : Dolby Digital
Codec ID : A_AC3
Duration : 1 h 41 min
Bit rate mode : Constant
Bit rate : 640 kb/s
Channel(s) : 6 channels
Channel layout : L R C LFE Ls Rs
Sampling rate : 48.0 kHz
Frame rate : 31.250 FPS (1536 SPF)
Compression mode : Lossy
Stream size : 462 MiB (7%)
Title : Original
Language : English
Service kind : Complete Main
Default : No
Forced : No

Text #1
ID : 4
Format : UTF-8
Codec ID : S_TEXT/UTF8
Codec ID/Info : UTF-8 Plain Text
Duration : 1 h 33 min
Bit rate : 48 b/s
Count of elements : 1043
Stream size : 33.3 KiB (0%)
Title : Full
Language : English
Default : No
Forced : No

Text #2
ID : 5
Format : UTF-8
Codec ID : S_TEXT/UTF8
Codec ID/Info : UTF-8 Plain Text
Duration : 1 h 38 min
Bit rate : 53 b/s
Count of elements : 1206
Stream size : 38.4 KiB (0%)
Title : SDH
Language : English
Default : No
Forced : No

Menu
00:00:00.000 : en:Chapter 01
00:04:55.545 : en:Chapter 02
00:12:26.579 : en:Chapter 03
00:19:46.394 : en:Chapter 04
00:25:12.720 : en:Chapter 05
00:32:38.832 : en:Chapter 06
00:39:06.761 : en:Chapter 07
00:46:05.429 : en:Chapter 08
00:52:56.131 : en:Chapter 09
00:58:57.200 : en:Chapter 10
01:03:14.708 : en:Chapter 11
01:11:29.035 : en:Chapter 12
01:20:13.642 : en:Chapter 13
01:27:44.926 : en:Chapter 14
01:34:02.220 : en:Chapter 15

piratbit.org



Скачать Страна грёз через торрент https://i114.fastpic.ru/big/2021/0110/09/c9a45a032cfc6df442099441e2b56109.jpg Скачать фильм Страна грёз через торрент бесплантно в хорошем качестве Описание: 1930-е годы. 17-летний Юджин Эванс охотится за грабительницей банков, за чью голову обещают денежное вознаграждение, надеясь ... 10 10 4
Торрент: Зарегистрирован [2021-01-10 17:36] · скачан: 60 раз
Статус: √ проверено
Размер: 6.1 GB
Как cкачать? Как скачать Страна грёз через торрент | UTorrent

% Раздел Тема Автор DL S | L
Фильмы 2019-2020 [DVDrip, WEB-DLRip, HDrip] (DUB, MVO) [ 722 MB ] Страна грёз / Dreamland [2019 HDRip ""] coc900 Скачать
2 | 0
Фильмы [HD 720p, 1080p] (Хороший звук DUB, MVO) [ 11.26 GB ] Страна грёз / Dreamland [2019 BDRip 1080p] bober100 Скачать
9 | 1
Фильмы (Blu-ray, BD-Remux, HDDVD) [ 27.62 GB ] Страна грёз / Dreamland [2019 BD Remux 1080p] bober100 Скачать
5 | 0
Фильмы 2019-2020 [DVDrip, WEB-DLRip, HDrip] (DUB, MVO) [ 1.46 GB ] Страна грёз / Dreamland [2019 HDRip] - Twi7ter Скачать
42 | 0
Фильмы 2019-2020 [DVDrip, WEB-DLRip, HDrip] (DUB, MVO) [ 2.06 GB ] Страна грёз / Dreamland [2020 WEB-DLRip-AVC] от MediaBit Lithuania Скачать
8 | 0
Фильмы 2019-2020 [DVDrip, WEB-DLRip, HDrip] (DUB, MVO) [ 1.45 GB ] Страна грёз / Dreamland [2019 WEB-DLRip] bober100 Скачать
6 | 0
Фильмы (WEB-DL 720p, 1080p) [ 5.97 GB ] Страна грёз / Dreamland [2019 WEB-DL 1080p] [AMAZON Version] bober100 Скачать
2 | 0

28-11-2019 20:33  

Отключить всю рекламу на сайте

15-01-2021 17:36 Страна грёз Скачать торрент  

отличный фильм! Красивее груди я не видел, Марго просто богиняpiratbit.org



    Дорогой пользователь! Огромная просьба, поблагодарите релизера, оцените раздачу и оставьте свои комментарий, если Вы скачали Страна грёз через торрент бесплатно! Внесите свою лепту в развитие PiratBit!
    Комментировать посты могут только пользователи прошедшие не сложную регистрацию
    Показать сообщения:    

    Страна грёз через торрент
    Скачать бесплатно Страна грёз
    Страна грёз скачать торрент
    Страна грёз смотреть онлайн
    Cкачать фильм Страна грёз бесплатно
    Страна грёз скачать торрент в хорошем качестве
    Страна грёз смотреть онлайн бесплатно в хорошем качестве


    Вы не можете начинать темы
    Вы не можете отвечать на сообщения
    Вы не можете редактировать свои сообщения
    Вы не можете удалять свои сообщения
    Вы не можете голосовать в опросах
    Вы не можете прикреплять файлы к сообщениям
    Вы можете скачивать файлы