2 сезон

iTunes

MVO

1

2 сезон

iTunes

iTunes

1 сезон

RePack

30

Ultimate

ВАЖНО

ИГРА 18+

pack

RePack

MK11
pack

Легкие деньги

RePack

jed

RePack

fifa19

RePack

RDR2

RePack

NEED FOR SPEED™ PAYBACK

4 сезон

9 сезон

Бесстыжие 9 сезон

Все сериалы

все сериалы на PB.wtf

RePack

FAR CRY 5

Anonymous, добрый день, мы не успеваем собрать деньги на оплату серверов за декабрь и январь, помогите нам пожалуйста в это трудное время. В качестве благодарности мы отключим Вам всю рекламу на сайте (укажите свой ник в строку Ваше имя)!

×
  
Magnet ссылка

Супер Пёс и Турбо Кот в 3Д / StarDog and TurboCat 3D (Бен Смит / Ben Smith) [2019, мультфильм, фэнтези, комедия, семейный, BDRip, 1080p] OverUnder / Вертикальная стереопара (iTunes) piratbit.org

Супер Пёс и Турбо Кот в 3Д через торрент piratbit.org

Раздают: 1 [ 0 KB/s ]
Размер: 9.26 GB | Добавлен: 7 д. назад | Торрент скачан:3 раза
Скачать  

12-01-2021 05:41 Супер Пёс и Турбо Кот в 3Д Скачать торрент  

Супер Пёс и Турбо Кот / StarDog and TurboCat

Год выпуска: 2019
Страна: Великобритания (Head Gear Films, Metrol Technology, Screen Yorkshire, Red Star 3D, Particular Crowd)
Жанр: мультфильм, фэнтези, комедия, семейный
Продолжительность: 01:30:33

Перевод: Профессиональный дублированный (iTunes)
Русские субтитры: нет
Режиссер: Бен Смит / Ben Smith

Роли озвучивали: Люк Эванс, Ник Фрост, Джемма Артертон, Билл Найи, Чарли Д’Амелио, Морган Кэмбс, Кори Инглиш, Рэйчел, Луиз Миллер, Дэн Расселл, Роберт Дж. Слэйд

Описание: Запущенный в космос его владельцем ученым в 1969 году, верный пёс Бадди терпит крушение в наши дни в небольшом городке, где питомцы подвергаются облавам ненавидящим животных полицейским Пеком.
Отчаянно желая воссоединиться со своим владельцем, Бадди нанимает гениального кота-миллионера Феликса, чтобы помочь ему и это выливается в безумное приключение.
Они сталкиваются с кроликом Кэссиди и его организацией по защите прав животных G.U.A.R.D., Бадди и Феликс вынуждены противостоять Пеку и в процессе становятся настоящими героями!

Сэмпл: http://sendfile.su/1591258

Качество: BDrip, 1080p
Контейнер: MKV
Формат 3D: OverUnder / Вертикальная стереопара
Порядок ракурсов: левый ракурс первый
Видео кодек: x264
Аудио кодек: AC3
Видео: AVC / High@L5.0 / 23,976 fps / 1920х2160 / 13,5 Мбит/сек
Аудио: Русский / AC3 / 48 KHz / 2.0 ch / 192 Кбит/сек(iTunes)
Аудио 2: Английский / AC3 / 48 KHz / 5.1 ch / 640 Кбит/сек

ВНИМАНИЕ ! На встроенных ТВ-плеерах работать не будет!!!

ТВ Samsung в названии которого есть надпись Ultra HD , и LG Ultra HD 800 серии, LG C6P, Xiaomi Mi TV 2, GRUNDIG VLE 8474 BL, Samsung UE48H6200AK воспроизводят полные стереопары встроенными плеерами
Железные плееры на которых воспроизводятся полные стереопары:Popcorn C-200, Popcorn a-400, Dune HD Smart D1 , Dune HD DUO , Dune HD Smart H1 , Dune HD Smart B1 , Dune HD Max , Dune HD TV-303D, Dune HD TV-102, Dune HD Base 3D, Philips HMP7001, Aura HD, MECOOL BB2, Zidoo x9s, Lake I Cloud, MiBox 3
Чтобы изображение было на весь экран в плеере выставляем, если рип 1920х1600 - то выставляем 2.35:1 , если 1920х2160 - то выставляем 16:9
Общее
Уникальный идентификатор : 188377012715172819221778196266880661329 (0x8DB817CC5F8622B8B20C40B99428F751)
Полное имя : G:\Iso\StarDog and TurboCat.Rip by SeRoGa00.mkv
Формат : Matroska
Версия формата : Version 2
Размер файла : 9,26 Гбайт
Продолжительность : 1 ч. 30 м.
Общий поток : 14,6 Мбит/сек
Дата кодирования : UTC 2021-01-09 05:33:55
Программа кодирования : mkvmerge v3.4.0 ('Rapunzel') сборка от May 15 2010 09:38:20
Библиотека кодирования : libebml v0.8.0 + libmatroska v0.9.0

Видео
Идентификатор : 1
Формат : AVC
Формат/Информация : Advanced Video Codec
Профиль формата : High@L5.0
Параметр CABAC формата : Да
Параметр ReFrames формата : 4 кадра
Идентификатор кодека : V_MPEG4/ISO/AVC
Продолжительность : 1 ч. 30 м.
Битрейт : 13,5 Мбит/сек
Ширина : 1920 пикселей
Высота : 2160 пикселей
Соотношение сторон : 0,889
Частота кадров : 23,976 кадра/сек
Цветовое пространство : YUV
Субдискретизация насыщенности : 4:2:0
Битовая глубина : 8 бит
Тип развёртки : Прогрессивная
Бит/(Пиксели*Кадры) : 0.136
Размер потока : 8,55 Гбайт (92%)
Заголовок : Rip by SeRoGa00
Библиотека кодирования : x264 core 157 r2969 d4099dd
Настройки программы : cabac=1 / ref=4 / deblock=1:-3:-3 / analyse=0x3:0x113 / me=umh / subme=10 / psy=1 / psy_rd=1.00:0.15 / mixed_ref=1 / me_range=24 / chroma_me=1 / trellis=2 / 8x8dct=1 / cqm=0 / deadzone=21,11 / fast_pskip=1 / chroma_qp_offset=-3 / threads=12 / lookahead_threads=6 / sliced_threads=0 / nr=0 / decimate=0 / interlaced=0 / bluray_compat=0 / constrained_intra=0 / bframes=10 / b_pyramid=2 / b_adapt=2 / b_bias=0 / direct=3 / weightb=1 / open_gop=0 / weightp=2 / keyint=250 / keyint_min=23 / scenecut=40 / intra_refresh=0 / rc_lookahead=60 / rc=crf / mbtree=1 / crf=16.5 / qcomp=0.60 / qpmin=10 / qpmax=69 / qpstep=4 / vbv_maxrate=40000 / vbv_bufsize=40000 / crf_max=0.0 / nal_hrd=none / filler=0 / ip_ratio=1.40 / aq=1:1.00
Язык : English
Default : Нет
Forced : Нет

Аудио #1
Идентификатор : 2
Формат : AC-3
Формат/Информация : Audio Coding 3
Расширение режима : CM (complete main)
Параметр Endianness формата : Big
Идентификатор кодека : A_AC3
Продолжительность : 1 ч. 30 м.
Вид битрейта : Постоянный
Битрейт : 192 Кбит/сек
Каналы : 2 канала
Расположение каналов : Front: L R
Частота : 48,0 КГц
Битовая глубина : 16 бит
Метод сжатия : С потерями
Размер потока : 124 Мбайт (1%)
Язык : Russian
Default : Да
Forced : Нет

Аудио #2
Идентификатор : 3
Формат : AC-3
Формат/Информация : Audio Coding 3
Расширение режима : CM (complete main)
Параметр Endianness формата : Big
Идентификатор кодека : A_AC3
Продолжительность : 1 ч. 30 м.
Вид битрейта : Постоянный
Битрейт : 640 Кбит/сек
Каналы : 6 каналов
Расположение каналов : Front: L C R, Side: L R, LFE
Частота : 48,0 КГц
Битовая глубина : 16 бит
Метод сжатия : С потерями
Размер потока : 414 Мбайт (4%)
Язык : English
Default : Нет
Forced : Нет

Меню
00:00:00.000 : :1
00:04:23.096 : :2
00:14:57.814 : :3
00:21:29.914 : :4
00:26:30.798 : :5
00:35:28.126 : :6
00:42:51.068 : :7
00:51:18.492 : :8
00:58:12.614 : :9
01:05:34.722 : :10
01:14:21.457 : :11
01:20:28.073 : :12
скриншот  

скриншот  

скриншот  

скриншот  

скриншот  

скриншот  
piratbit.org



Скачать Супер Пёс и Турбо Кот в 3Д через торрент https://c.radikal.ru/c28/2101/41/088af06e6176.png Скачать фильм Супер Пёс и Турбо Кот в 3Д через торрент бесплантно в хорошем качестве Описание: Запущенный в космос его владельцем ученым в 1969 году, верный пёс Бадди терпит крушение в наши дни в небольшом городке, где ... 5 10 1
Торрент: Зарегистрирован [2021-01-12 05:41] · скачан: 3 раз
Статус: √ проверено
Размер: 9.26 GB
Как cкачать? Как скачать Супер Пёс и Турбо Кот в 3Д через торрент | UTorrent

28-11-2019 20:33  

Отключить всю рекламу на сайте

    Дорогой пользователь! Огромная просьба, поблагодарите релизера, оцените раздачу и оставьте свои комментарий, если Вы скачали Супер Пёс и Турбо Кот в 3Д через торрент бесплатно! Внесите свою лепту в развитие PiratBit!
    Комментировать посты могут только пользователи прошедшие не сложную регистрацию
    Показать сообщения:    

    Супер Пёс и Турбо Кот в 3Д через торрент
    Скачать бесплатно Супер Пёс и Турбо Кот в 3Д
    Супер Пёс и Турбо Кот в 3Д скачать торрент
    Супер Пёс и Турбо Кот в 3Д смотреть онлайн
    Cкачать фильм Супер Пёс и Турбо Кот в 3Д бесплатно
    Супер Пёс и Турбо Кот в 3Д скачать торрент в хорошем качестве
    Супер Пёс и Турбо Кот в 3Д смотреть онлайн бесплатно в хорошем качестве


    Вы не можете начинать темы
    Вы не можете отвечать на сообщения
    Вы не можете редактировать свои сообщения
    Вы не можете удалять свои сообщения
    Вы не можете голосовать в опросах
    Вы не можете прикреплять файлы к сообщениям
    Вы можете скачивать файлы